VideoHelp Forum

Our website is made possible by displaying online advertisements to our visitors. Consider supporting us by disable your adblocker or Try ConvertXtoDVD and convert all your movies to DVD. Free trial ! :)
+ Reply to Thread
Results 1 to 6 of 6
Thread
  1. Member
    Join Date
    Mar 2007
    Location
    United States
    Search Comp PM
    Hello,

    I am doing experiments and need to convert some video only. Can you some one please point me in the right direction. If you can provide a step by step that would be great.

    Here is the original (From Media Info)

    General
    ID : FF
    Complete name : Raw-2009_05_21-14_51_08.m2t
    Format : MPEG-TS
    File size : 159 MiB
    Duration : 49s 382ms
    Start time : UTC 2009-05-21 14:51:08
    End time : UTC 2009-05-21 14:51:57
    Overall bit rate : 27.0 Mbps
    Maximum Overall bit rate : 33.0 Mbps
    Encoded date : UTC 2009-05-21 14:51:08

    Video
    ID : 2064 (0x810)
    Menu ID : 100 (0x64)
    Format : MPEG Video
    Format version : Version 2
    Format profile : Main@High-1440
    Format settings, Matrix : Default
    Duration : 49s 382ms
    Bit rate mode : Constant
    Bit rate : 24.8 Mbps
    Nominal bit rate : 25.0 Mbps
    Width : 1 440 pixels
    Height : 1 080 pixels
    Display aspect ratio : 16/9
    Frame rate : 29.970 fps
    Standard : Component
    Colorimetry : 4:2:0
    Scan type : Interlaced
    Scan order : Top Field First
    Bits/(Pixel*Frame) : 0.532
    Stream size : 146 MiB (92%)

    Audio
    ID : 2068 (0x814)
    Menu ID : 100 (0x64)
    Format : MPEG Audio
    Format version : Version 1
    Format profile : Layer 2
    Duration : 49s 128ms
    Bit rate mode : Constant
    Bit rate : 384 Kbps
    Channel(s) : 2 channels
    Sampling rate : 48.0 KHz
    Resolution : 16 bits
    Video delay : 105ms
    Stream size : 2.25 MiB (1%)

    I need it converted to this exactly. I tried it in Vegas but it will not let me change the frame Rate.

    General
    Complete name : 1mbps.264
    Format : AVC
    Format/Info : Advanced Video Codec
    File size : 1.17 MiB

    Video
    Format : AVC
    Format/Info : Advanced Video Codec
    Format profile : Baseline@L2.1
    Format settings, CABAC : No
    Format settings, ReFrames : 1 frame
    Width : 1 280 pixels
    Height : 720 pixels
    Display aspect ratio : 16/9
    Frame rate : 15.000 fps
    Resolution : 24 bits
    Colorimetry : 4:2:0
    Scan type : Progressive


    Thanks in advance for the help.
    Quote Quote  
  2. from an HDV source vegas can come close using the mainconcept avc encoder. the only thing it doesn't have is a baseline@2.1 setting - the lowest it will go is baseline@3.1 as for the framerate it allows 15fps without any problem. did you have the "allow source to adjust framerate" checked?

    here's a sample. use mediainfo to check it's specs.




    testchart.mp4
    Quote Quote  
  3. mediacoder can produce the specs you want, even the baseline@2.1
    Quote Quote  
  4. Member
    Join Date
    Mar 2007
    Location
    United States
    Search Comp PM
    thanks for the information, but as mentioned in Vegas i cannot get down to baseline@2.1 do maybe have a step by step. Alos how do I extract the audio and video with an m2t file. Tsmuxer will not read this file. Thanks again.
    Quote Quote  
  5. aBigMeanie aedipuss's Avatar
    Join Date
    Oct 2005
    Location
    666th portal
    Search Comp PM
    right vegas can't do it.

    what is the source video from?

    mediacoder can. import the video. set video/format to h264. set encoder to x264. set profile to baseline. set level to 2.1. set your audio. in the "picture" tab, check resize and set it to 1280x720. check frame rate and set it to 15.
    --
    "a lot of people are better dead" - prisoner KSC2-303
    Quote Quote  
  6. Member
    Join Date
    Mar 2007
    Location
    United States
    Search Comp PM
    thx I will give it a shot. The video is a test video for a HW decoder that only works if the specs are met.
    Quote Quote  



Similar Threads