VideoHelp Forum

Try DVDFab and download streaming video, copy, convert or make Blu-rays,DVDs! Download free trial !
+ Reply to Thread
Results 1 to 3 of 3
Thread
  1. Member
    Join Date
    Feb 2006
    Location
    Georgia
    Search Comp PM
    HI All,

    The mkv video I play with TMT3 has 2 audio tracks Eng and Ger. TMT3 by default plays Ger, is it posible to select Eng audio or change default?
    Quote Quote  
  2. Always Watching guns1inger's Avatar
    Join Date
    Apr 2004
    Location
    Miskatonic U
    Search Comp PM
    Use The KM Player or VLC to playback and chose the audio you want.

    You might be able to change the audio order with MKVMerge
    Read my blog here.
    Quote Quote  
  3. Member
    Join Date
    Feb 2006
    Location
    Georgia
    Search Comp PM
    THanks but I prefer to play with TMT3. Audio order seems to be fine, this is what media info says:

    Video
    ID : 1
    Format : AVC
    Format/Info : Advanced Video Codec
    Format profile : High@L5.1
    Format settings, CABAC : Yes
    Format settings, ReFrames : 16 frames
    Muxing mode : Container profile=Unknown@5.1
    Codec ID : V_MPEG4/ISO/AVC
    Duration : 1h 29mn
    Bit rate : 3 002 Kbps
    Nominal bit rate : 3 074 Kbps
    Width : 1 280 pixels
    Height : 720 pixels
    Display aspect ratio : 16/9
    Frame rate : 23.976 fps
    Resolution : 24 bits
    Colorimetry : 4:2:0
    Scan type : Progressive
    Bits/(Pixel*Frame) : 0.136
    Stream size : 1.89 GiB (78%)
    Writing library : x264 core 45 svn-502
    Encoding settings : cabac=1 / ref=16 / deblock=1:0:0 / analyse=0x3:0x133 / me=umh / subme=6 / brdo=1 / mixed_ref=1 / me_range=16 / chroma_me=1 / trellis=1 / 8x8dct=1 / cqm=0 / chroma_qp_offset=0 / slices=2 / nr=0 / bframes=3 / b_pyramid=1 / b_adapt=1 / b_bias=0 / direct=1 / wpredb=1 / bime=1 / keyint=250 / keyint_min=25 / scenecut=40 / rc=2pass / bitrate=3074 / ratetol=1.0 / rceq='blurCplx^(1-qComp)' / qcomp=0.60 / qpmin=10 / qpmax=51 / qpstep=4 / cplxblur=20.0 / qblur=0.5 / ip_ratio=1.40 / pb_ratio=1.30
    Language : English

    Audio #1
    ID : 2
    Format : AC-3
    Format/Info : Audio Coding 3
    Codec ID : A_AC3
    Duration : 1h 30mn
    Bit rate mode : Constant
    Bit rate : 384 Kbps
    Channel(s) : 6 channels
    Channel positions : Front: L C R, Surround: L R, LFE
    Sampling rate : 48.0 KHz
    Stream size : 247 MiB (10%)
    Language : English

    Audio #2
    ID : 3
    Format : AC-3
    Format/Info : Audio Coding 3
    Codec ID : A_AC3
    Duration : 1h 30mn
    Bit rate mode : Constant
    Bit rate : 384 Kbps
    Channel(s) : 6 channels
    Channel positions : Front: L C R, Surround: L R, LFE
    Sampling rate : 48.0 KHz
    Stream size : 247 MiB (10%)
    Language : German

    and MPC-HC plays correctly in English.
    Quote Quote  



Similar Threads