VideoHelp Forum

Our website is made possible by displaying online advertisements to our visitors. Consider supporting us by disable your adblocker or Try ConvertXtoDVD and convert all your movies to DVD. Free trial ! :)
+ Reply to Thread
Results 1 to 5 of 5
Thread
  1. Member
    Join Date
    Aug 2008
    Location
    United Kingdom
    Search Comp PM
    Ok I did the progress.app thing and my video that i wanted to convert converted in less than a split second,
    so I clicked the blue "i" and got this Error message about what's wrong:

    FFmpeg version CVS, Copyright (c) 2000-2004 Fabrice Bellard
    Mac OSX universal build for ffmpegX
    libavutil version: 49.0.0
    libavcodec version: 51.9.0
    libavformat version: 50.4.0
    Tue Aug 19 12:31:49 BST 2008
    [NULL @ 0x54340c]Unsupported video codec
    Input #0, rm, from '/Users/entisarabdalla/Movies/Movie - 013 - Wrath Of The Dragon.rmvb':
    Duration: 00:51:55.3, start: 0.000000, bitrate: 256 kb/s
    Stream #0.0: Audio: cook, 44100 Hz, stereo, 32 kb/s
    Stream #0.1, 12.00 fps(r): Video: RV40 / 0x30345652, 400x300, 217 kb/s
    Stream #0.2: Data: 0x0000
    Incorrect frame rate

    What does that mean Im new.

    2GHz Intel Core 2 Duo 1GB 667MHz Mac book
    Quote Quote  
  2. Member
    Join Date
    Aug 2008
    Location
    United Kingdom
    Search Comp PM
    Ok i fixed the "Incorrect Frame Rate" and now i got this error message:

    FFmpeg version CVS, Copyright (c) 2000-2004 Fabrice Bellard
    Mac OSX universal build for ffmpegX
    libavutil version: 49.0.0
    libavcodec version: 51.9.0
    libavformat version: 50.4.0
    [NULL @ 0x54340c]Unsupported video codec
    Tue Aug 19 12:49:51 BST 2008
    s/entisarabdalla/Movies/Movie - 013 - Wrath Of The Dragon.rmvb':
    Duration: 00:51:55.3, start: 0.000000, bitrate: 256 kb/s
    Stream #0.0: Audio: cook, 44100 Hz, stereo, 32 kb/s
    Stream #0.1, 12.00 fps(r): Video: RV40 / 0x30345652, 400x300, 217 kb/s
    Stream #0.2: Data: 0x0000
    Codec type mismatch for mapping #0.0 -> #0.0

    What's the problem now?
    Quote Quote  
  3. Member
    Join Date
    Aug 2008
    Location
    United Kingdom
    Search Comp PM
    I tried another video codec and it's not working!,
    Error message

    /bin/sh: line 1: /Library/Application Support/ffmpegX/mencoder: cannot execute binary file
    Tue Aug 19 12:52:13 BST 2008
    Quote Quote  
  4. Explorer Case's Avatar
    Join Date
    Feb 2004
    Location
    Middle Earth
    Search Comp PM
    Originally Posted by Omipower
    FFmpeg version CVS, Copyright (c) 2000-2004 Fabrice Bellard
    Mac OSX universal build for ffmpegX
    Input #0, rm, from '/Users/entisarabdalla/Movies/Movie - 013 - Wrath Of The Dragon.rmvb':
    Incorrect frame rate
    ffmpegX doesn't support RMVB files when using the ffmpeg engine. If I told you how to avoid the "Incorrect frame rate", you would still end up with a new error of "unsupported codec".

    Originally Posted by Omipower
    FFmpeg version CVS, Copyright (c) 2000-2004 Fabrice Bellard
    Mac OSX universal build for ffmpegX
    Codec type mismatch for mapping #0.0 -> #0.0
    On your second try, you're still using settings that use the ffmpeg engine. If I told you how to avoid the "mismatch for mapping" error, you would still end up with a new error of "unsupported codec".

    Originally Posted by Omipower
    /bin/sh: line 1: /Library/Application Support/ffmpegX/mencoder: cannot execute binary file
    Tue Aug 19 12:52:13 BST 2008
    Actually this is some improvement! This time you used a setting that used the mencoder engine to encode, which is what you should use for RMVB source files.

    1/ Did you install the binaries (mpeg2enc, mplayer, mencoder)?
    2/ Did you install the reallib library for RealMedia support in ffmpegX? There is a reallib for PowerPC and one for Intel processors. Use the one for your chipset.
    3/ reallib is a plug-in for mplayer. Thus, only settings that make use of mplayer can use reallib. This includes all mencoder presets.
    4/ mplayer/reallib has been known to be fuzzy about the source file suffix. Renaming .rmvb to .rm seems to improve support.
    Quote Quote  
  5. Member
    Join Date
    Aug 2008
    Location
    United Kingdom
    Search Comp PM
    Ok thanks I get it now.

    I did the download for Intel cause i got that one

    When i get any further questions ill be sure to ask ya.
    Quote Quote  



Similar Threads