VideoHelp Forum

Our website is made possible by displaying online advertisements to our visitors. Consider supporting us by disable your adblocker or Try ConvertXtoDVD and convert all your movies to DVD. Free trial ! :)
+ Reply to Thread
Results 1 to 5 of 5
Thread
  1. I am trying to build a DVD of 5 DivX movies for a friend. I keep receiving the attached warning. When resultant DVD is played on a standalone player only the first movie is selected. You cannot use the up/down arrows to select movies 2 - 5. Will some kind soul please tell me how to correct this problem?

    Thanks!

    djmobius



    Quote Quote  
  2. That shouldn't affect your menu operation. Can you post your log from this run?
    Dwight

    "A positive attitude may not solve all your problems, but it will annoy enough people to make it worth the effort."
    - Herm Albright

    www.martialconcepts.com
    Quote Quote  
  3. Here is the log:

    Processing assets for DVD creation

    =================== AV Details ===================
    File Size: 781 MB
    file=R:\midsomer murders-11.avi
    FormatName=avi
    Num_Frames=177900
    DurationInSecs=5935
    Duration=01:38:55.9
    VideoCodec=mpeg4
    Width=512
    Height=432
    Standard=UNKNOWN
    BitRate=1104
    AudioStreamCount=1
    Audio1StreamID=[0x1]
    Audio1SampleRate=48000
    Audio1Codec=ac3
    Audio1BitRate=192
    Audio1Channels=2
    =================== AV Details ===================

    AVI2MPG: 1016kbs Half-D1 FS TV
    21:26:35: Looking for AVI PAR...
    Leaving source audio alone.
    Using low bitrate matrices
    Pass 1/2: Processing midsomer murders-11.avi
    21:26:40: FFmpeg version CVS, Copyright (c) 2000-2004 Fabrice Bellard

    21:26:40: configuration: --enable-a52 --enable-gpl --enable-memalign-hack --disable-debug --enable-pthreads

    21:26:40: libavutil version: 49.0.0

    21:26:40: libavcodec version: 51.4.0

    21:26:40: libavformat version: 50.2.1

    21:26:40: built on Mar 14 2006 17:24:07, gcc: 3.4.4 (mingw special)

    21:26:40: Seems that stream 0 comes from film source: 30000.00 (30000/1) -> 29.97 (30000/1001)

    21:26:40: Input #0, avi, from 'R:\midsomer murders-11.avi':

    21:26:40: Duration: 01:38:55.9, start: 0.000000, bitrate: 1104 kb/s

    21:26:40: Stream #0.0, 29.97 fps(r): Video: mpeg4, yuv420p, 512x432

    21:26:40: Stream #0.1: Audio: ac3, 48000 Hz, stereo, 192 kb/s

    21:26:40: Output #0, dvd, to 'NUL':

    21:26:40: Stream #0.0, 29.97 fps(c): Video: mpeg2video (hq), yuv420p, 352x480, q=1-31, pass 1, 1016 kb/s

    21:26:40: Stream #0.1: Audio: ac3, 48000 Hz, stereo, 192 kb/s

    21:26:40: Stream mapping:

    21:26:40: Stream #0.0 -> #0.0

    21:26:40: Stream #0.1 -> #0.1

    22:05:46: video:736114kB audio:139118kB global headers:0kB muxing overhead 4.743962%

    Using low bitrate matrices
    Pass 2/2: Processing midsomer murders-11.avi
    22:06:14: FFmpeg version CVS, Copyright (c) 2000-2004 Fabrice Bellard

    22:06:14: configuration: --enable-a52 --enable-gpl --enable-memalign-hack --disable-debug --enable-pthreads

    22:06:14: libavutil version: 49.0.0

    22:06:14: libavcodec version: 51.4.0

    22:06:14: libavformat version: 50.2.1

    22:06:14: built on Mar 14 2006 17:24:07, gcc: 3.4.4 (mingw special)

    22:06:14: Seems that stream 0 comes from film source: 30000.00 (30000/1) -> 29.97 (30000/1001)

    22:06:14: Input #0, avi, from 'R:\midsomer murders-11.avi':

    22:06:14: Duration: 01:38:55.9, start: 0.000000, bitrate: 1104 kb/s

    22:06:14: Stream #0.0, 29.97 fps(r): Video: mpeg4, yuv420p, 512x432

    22:06:14: Stream #0.1: Audio: ac3, 48000 Hz, stereo, 192 kb/s

    22:06:14: Output #0, dvd, to 'R:\midsomer murders-11_S2D.mpg':

    22:06:14: Stream #0.0, 29.97 fps(c): Video: mpeg2video (hq), yuv420p, 352x480, q=1-31, pass 2, 1016 kb/s

    22:06:14: Stream #0.1: Audio: ac3, 48000 Hz, stereo, 192 kb/s

    22:06:14: Stream mapping:

    22:06:14: Stream #0.0 -> #0.0

    22:06:14: Stream #0.1 -> #0.1

    Drive F: has only 0.99 GB free.
    22:43:29: video:736254kB audio:139118kB global headers:0kB muxing overhead 4.742990%

    22:43:30: AVI2MPG: done.

    =================== AV Details ===================
    File Size: 855 MB
    file=R:\midsomer murders-12.avi
    FormatName=avi
    Num_Frames=178795
    DurationInSecs=5965
    Duration=01:39:25.7
    VideoCodec=mpeg4
    Width=640
    Height=480
    Standard=UNKNOWN
    BitRate=1203
    AudioStreamCount=1
    Audio1StreamID=[0x1]
    Audio1SampleRate=48000
    Audio1Codec=ac3
    Audio1BitRate=192
    Audio1Channels=2
    =================== AV Details ===================

    AVI2MPG: 1016kbs Half-D1 FS TV
    22:43:31: Looking for AVI PAR...
    Leaving source audio alone.
    Using low bitrate matrices
    Pass 1/2: Processing midsomer murders-12.avi
    22:43:36: FFmpeg version CVS, Copyright (c) 2000-2004 Fabrice Bellard

    22:43:36: configuration: --enable-a52 --enable-gpl --enable-memalign-hack --disable-debug --enable-pthreads

    22:43:36: libavutil version: 49.0.0

    22:43:36: libavcodec version: 51.4.0

    22:43:36: libavformat version: 50.2.1

    22:43:36: built on Mar 14 2006 17:24:07, gcc: 3.4.4 (mingw special)

    22:43:36: Seems that stream 0 comes from film source: 30000.00 (30000/1) -> 29.97 (30000/1001)

    22:43:36: Input #0, avi, from 'R:\midsomer murders-12.avi':

    22:43:36: Duration: 01:39:25.7, start: 0.000000, bitrate: 1203 kb/s

    22:43:36: Stream #0.0, 29.97 fps(r): Video: mpeg4, yuv420p, 640x480

    22:43:36: Stream #0.1: Audio: ac3, 48000 Hz, stereo, 192 kb/s

    22:43:36: Output #0, dvd, to 'NUL':

    22:43:36: Stream #0.0, 29.97 fps(c): Video: mpeg2video (hq), yuv420p, 352x480, q=1-31, pass 1, 1016 kb/s

    22:43:36: Stream #0.1: Audio: ac3, 48000 Hz, stereo, 192 kb/s

    22:43:36: Stream mapping:

    22:43:36: Stream #0.0 -> #0.0

    22:43:36: Stream #0.1 -> #0.1

    23:17:57: video:739651kB audio:139813kB global headers:0kB muxing overhead 4.759070%

    Using low bitrate matrices
    Pass 2/2: Processing midsomer murders.avi
    23:18:18: FFmpeg version CVS, Copyright (c) 2000-2004 Fabrice Bellard

    23:18:18: configuration: --enable-a52 --enable-gpl --enable-memalign-hack --disable-debug --enable-pthreads

    23:18:18: libavutil version: 49.0.0

    23:18:18: libavcodec version: 51.4.0

    23:18:18: libavformat version: 50.2.1

    23:18:18: built on Mar 14 2006 17:24:07, gcc: 3.4.4 (mingw special)

    23:18:18: Seems that stream 0 comes from film source: 30000.00 (30000/1) -> 29.97 (30000/1001)

    23:18:18: Input #0, avi, from 'R:\midsomer murders-12.avi':

    23:18:18: Duration: 01:39:25.7, start: 0.000000, bitrate: 1203 kb/s

    23:18:18: Stream #0.0, 29.97 fps(r): Video: mpeg4, yuv420p, 640x480

    23:18:18: Stream #0.1: Audio: ac3, 48000 Hz, stereo, 192 kb/s

    23:18:18: Output #0, dvd, to 'R:\midsomer murders-12_S2D.mpg':

    23:18:18: Stream #0.0, 29.97 fps(c): Video: mpeg2video (hq), yuv420p, 352x480, q=1-31, pass 2, 1016 kb/s

    23:18:18: Stream #0.1: Audio: ac3, 48000 Hz, stereo, 192 kb/s

    23:18:18: Stream mapping:

    23:18:18: Stream #0.0 -> #0.0

    23:18:18: Stream #0.1 -> #0.1

    23:49:14: video:739923kB audio:139813kB global headers:0kB muxing overhead 4.758094%

    23:49:14: AVI2MPG: done.

    =================== AV Details ===================
    File Size: 807 MB
    file=R:\midsomer murders-13.avi
    FormatName=avi
    Num_Frames=183706
    DurationInSecs=6129
    Duration=01:42:09.6
    VideoCodec=mpeg4
    Width=512
    Height=336
    Standard=UNKNOWN
    BitRate=1105
    AudioStreamCount=1
    Audio1StreamID=[0x1]
    Audio1SampleRate=48000
    Audio1Codec=ac3
    Audio1BitRate=192
    Audio1Channels=2
    =================== AV Details ===================

    AVI2MPG: 1016kbs Half-D1 FS TV
    23:49:14: Looking for AVI PAR...
    Leaving source audio alone.
    Using low bitrate matrices
    Pass 1/2: Processing midsomer murders-13.avi
    23:49:16: FFmpeg version CVS, Copyright (c) 2000-2004 Fabrice Bellard

    23:49:16: configuration: --enable-a52 --enable-gpl --enable-memalign-hack --disable-debug --enable-pthreads

    23:49:16: libavutil version: 49.0.0

    23:49:16: libavcodec version: 51.4.0

    23:49:16: libavformat version: 50.2.1

    23:49:16: built on Mar 14 2006 17:24:07, gcc: 3.4.4 (mingw special)

    23:49:16: Seems that stream 0 comes from film source: 30000.00 (30000/1) -> 29.97 (30000/1001)

    23:49:16: Input #0, avi, from 'R:\midsomer murders-13.avi':

    23:49:16: Duration: 01:42:09.6, start: 0.000000, bitrate: 1105 kb/s

    23:49:16: Stream #0.0, 29.97 fps(r): Video: mpeg4, yuv420p, 512x336

    23:49:16: Stream #0.1: Audio: ac3, 48000 Hz, stereo, 192 kb/s

    23:49:16: Output #0, dvd, to 'NUL':

    23:49:16: Stream #0.0, 29.97 fps(c): Video: mpeg2video (hq), yuv420p, 352x480, q=1-31, pass 1, 1016 kb/s

    23:49:16: Stream #0.1: Audio: ac3, 48000 Hz, stereo, 192 kb/s

    23:49:16: Stream mapping:

    23:49:16: Stream #0.0 -> #0.0

    23:49:16: Stream #0.1 -> #0.1

    00:17:22: video:759968kB audio:143663kB global headers:0kB muxing overhead 4.742854%

    Using low bitrate matrices
    Pass 2/2: Processing midsomer murders-13.avi
    00:17:42: FFmpeg version CVS, Copyright (c) 2000-2004 Fabrice Bellard

    00:17:42: configuration: --enable-a52 --enable-gpl --enable-memalign-hack --disable-debug --enable-pthreads

    00:17:42: libavutil version: 49.0.0

    00:17:42: libavcodec version: 51.4.0

    00:17:42: libavformat version: 50.2.1

    00:17:42: built on Mar 14 2006 17:24:07, gcc: 3.4.4 (mingw special)

    00:17:42: Seems that stream 0 comes from film source: 30000.00 (30000/1) -> 29.97 (30000/1001)

    00:17:42: Input #0, avi, from 'R:\midsomer murders-13.avi':

    00:17:42: Duration: 01:42:09.6, start: 0.000000, bitrate: 1105 kb/s

    00:17:42: Stream #0.0, 29.97 fps(r): Video: mpeg4, yuv420p, 512x336

    00:17:42: Stream #0.1: Audio: ac3, 48000 Hz, stereo, 192 kb/s

    00:17:42: Output #0, dvd, to 'R:\midsomer murders-13_S2D.mpg':

    00:17:42: Stream #0.0, 29.97 fps(c): Video: mpeg2video (hq), yuv420p, 352x480, q=1-31, pass 2, 1016 kb/s

    00:17:42: Stream #0.1: Audio: ac3, 48000 Hz, stereo, 192 kb/s

    00:17:42: Stream mapping:

    00:17:42: Stream #0.0 -> #0.0

    00:17:42: Stream #0.1 -> #0.1

    00:44:17: video:760257kB audio:143663kB global headers:0kB muxing overhead 4.735843%

    00:44:17: AVI2MPG: done.

    =================== AV Details ===================
    File Size: 855 MB
    file=R:\midsomer murders-14.avi
    FormatName=avi
    Num_Frames=178672
    DurationInSecs=5961
    Duration=01:39:21.6
    VideoCodec=mpeg4
    Width=640
    Height=480
    Standard=UNKNOWN
    BitRate=1203
    AudioStreamCount=1
    Audio1StreamID=[0x1]
    Audio1SampleRate=48000
    Audio1Codec=ac3
    Audio1BitRate=192
    Audio1Channels=2
    =================== AV Details ===================

    AVI2MPG: 1016kbs Half-D1 FS TV
    00:44:17: Looking for AVI PAR...
    Leaving source audio alone.
    Using low bitrate matrices
    Pass 1/2: Processing midsomer murders-14.avi
    00:44:18: FFmpeg version CVS, Copyright (c) 2000-2004 Fabrice Bellard

    00:44:18: configuration: --enable-a52 --enable-gpl --enable-memalign-hack --disable-debug --enable-pthreads

    00:44:18: libavutil version: 49.0.0

    00:44:18: libavcodec version: 51.4.0

    00:44:18: libavformat version: 50.2.1

    00:44:18: built on Mar 14 2006 17:24:07, gcc: 3.4.4 (mingw special)

    00:44:18: Seems that stream 0 comes from film source: 30000.00 (30000/1) -> 29.97 (30000/1001)

    00:44:18: Input #0, avi, from 'R:\midsomer murders-14.avi':

    00:44:18: Duration: 01:39:21.6, start: 0.000000, bitrate: 1203 kb/s

    00:44:18: Stream #0.0, 29.97 fps(r): Video: mpeg4, yuv420p, 640x480

    00:44:18: Stream #0.1: Audio: ac3, 48000 Hz, stereo, 192 kb/s

    00:44:18: Output #0, dvd, to 'NUL':

    00:44:18: Stream #0.0, 29.97 fps(c): Video: mpeg2video (hq), yuv420p, 352x480, q=1-31, pass 1, 1016 kb/s

    00:44:18: Stream #0.1: Audio: ac3, 48000 Hz, stereo, 192 kb/s

    00:44:18: Stream mapping:

    00:44:18: Stream #0.0 -> #0.0

    00:44:18: Stream #0.1 -> #0.1

    01:12:33: video:739171kB audio:139715kB global headers:0kB muxing overhead 4.777632%

    Using low bitrate matrices
    Pass 2/2: Processing midsomer murders-14.avi
    01:12:53: FFmpeg version CVS, Copyright (c) 2000-2004 Fabrice Bellard

    01:12:53: configuration: --enable-a52 --enable-gpl --enable-memalign-hack --disable-debug --enable-pthreads

    01:12:53: libavutil version: 49.0.0

    01:12:53: libavcodec version: 51.4.0

    01:12:53: libavformat version: 50.2.1

    01:12:53: built on Mar 14 2006 17:24:07, gcc: 3.4.4 (mingw special)

    01:12:53: Seems that stream 0 comes from film source: 30000.00 (30000/1) -> 29.97 (30000/1001)

    01:12:53: Input #0, avi, from 'R:\midsomer murders-14.avi':

    01:12:53: Duration: 01:39:21.6, start: 0.000000, bitrate: 1203 kb/s

    01:12:53: Stream #0.0, 29.97 fps(r): Video: mpeg4, yuv420p, 640x480

    01:12:53: Stream #0.1: Audio: ac3, 48000 Hz, stereo, 192 kb/s

    01:12:53: Output #0, dvd, to 'R:\midsomer murders-14_S2D.mpg':

    01:12:53: Stream #0.0, 29.97 fps(c): Video: mpeg2video (hq), yuv420p, 352x480, q=1-31, pass 2, 1016 kb/s

    01:12:53: Stream #0.1: Audio: ac3, 48000 Hz, stereo, 192 kb/s

    01:12:53: Stream mapping:

    01:12:53: Stream #0.0 -> #0.0

    01:12:53: Stream #0.1 -> #0.1

    01:41:41: video:739433kB audio:139715kB global headers:0kB muxing overhead 4.759403%

    01:41:41: AVI2MPG: done.

    =================== AV Details ===================
    File Size: 851 MB
    file=R:\midsomer murders-15.avi
    FormatName=avi
    Num_Frames=177905
    DurationInSecs=5936
    Duration=01:38:56.1
    VideoCodec=mpeg4
    Width=640
    Height=464
    Standard=UNKNOWN
    BitRate=1203
    AudioStreamCount=1
    Audio1StreamID=[0x1]
    Audio1SampleRate=48000
    Audio1Codec=ac3
    Audio1BitRate=192
    Audio1Channels=2
    =================== AV Details ===================

    AVI2MPG: 1016kbs Half-D1 FS TV
    01:41:41: Looking for AVI PAR...
    Leaving source audio alone.
    Using low bitrate matrices
    Pass 1/2: Processing midsomer murders-15.avi
    01:41:43: FFmpeg version CVS, Copyright (c) 2000-2004 Fabrice Bellard

    01:41:43: configuration: --enable-a52 --enable-gpl --enable-memalign-hack --disable-debug --enable-pthreads

    01:41:43: libavutil version: 49.0.0

    01:41:43: libavcodec version: 51.4.0

    01:41:43: libavformat version: 50.2.1

    01:41:43: built on Mar 14 2006 17:24:07, gcc: 3.4.4 (mingw special)

    01:41:43: Seems that stream 0 comes from film source: 30000.00 (30000/1) -> 29.97 (30000/1001)

    01:41:43: Input #0, avi, from 'R:\midsomer murders-15.avi':

    01:41:43: Duration: 01:38:56.1, start: 0.000000, bitrate: 1203 kb/s

    01:41:43: Stream #0.0, 29.97 fps(r): Video: mpeg4, yuv420p, 640x464

    01:41:43: Stream #0.1: Audio: ac3, 48000 Hz, stereo, 192 kb/s

    01:41:43: Output #0, dvd, to 'NUL':

    01:41:43: Stream #0.0, 29.97 fps(c): Video: mpeg2video (hq), yuv420p, 352x480, q=1-31, pass 1, 1016 kb/s

    01:41:43: Stream #0.1: Audio: ac3, 48000 Hz, stereo, 192 kb/s

    01:41:43: Stream mapping:

    01:41:43: Stream #0.0 -> #0.0

    01:41:43: Stream #0.1 -> #0.1

    02:09:47: video:735880kB audio:139114kB global headers:0kB muxing overhead 4.749345%

    Using low bitrate matrices
    Pass 2/2: Processing midsomer murders-15.avi
    02:10:07: FFmpeg version CVS, Copyright (c) 2000-2004 Fabrice Bellard

    02:10:07: configuration: --enable-a52 --enable-gpl --enable-memalign-hack --disable-debug --enable-pthreads

    02:10:07: libavutil version: 49.0.0

    02:10:07: libavcodec version: 51.4.0

    02:10:07: libavformat version: 50.2.1

    02:10:07: built on Mar 14 2006 17:24:07, gcc: 3.4.4 (mingw special)

    02:10:07: Seems that stream 0 comes from film source: 30000.00 (30000/1) -> 29.97 (30000/1001)

    02:10:07: Input #0, avi, from 'R:\midsomer murders-15.avi':

    02:10:07: Duration: 01:38:56.1, start: 0.000000, bitrate: 1203 kb/s

    02:10:07: Stream #0.0, 29.97 fps(r): Video: mpeg4, yuv420p, 640x464

    02:10:07: Stream #0.1: Audio: ac3, 48000 Hz, stereo, 192 kb/s

    02:10:07: Output #0, dvd, to 'R:\midsomer murders-15_S2D.mpg':

    02:10:07: Stream #0.0, 29.97 fps(c): Video: mpeg2video (hq), yuv420p, 352x480, q=1-31, pass 2, 1016 kb/s

    02:10:07: Stream #0.1: Audio: ac3, 48000 Hz, stereo, 192 kb/s

    02:10:07: Stream mapping:

    02:10:07: Stream #0.0 -> #0.0

    02:10:07: Stream #0.1 -> #0.1

    02:38:25: video:736273kB audio:139114kB global headers:0kB muxing overhead 4.751006%

    02:38:25: AVI2MPG: done.
    02:38:25: Done: Processing assets for DVD creation
    Authoring DVD Folders
    02:38:25: Creating TitleSet # 1
    02:38:26: SVCD2DVD: DVDfolders

    Generating DVD folders please wait....

    02:38:26: -->: DVDFolders creating VTS

    02:38:26: -->: VTS 01

    02:38:26:
    DVD Folders: Processing C:\Program Files\BadgerIT\SVCD2DVD v2\dummymenuNTSC.mpg...

    02:38:26:
    DVD Folders: Processing R:\midsomer murders-11_S2D.mpg...

    02:40:10:

    02:40:10:

    02:40:51:

    02:40:51: Creating TitleSet # 2
    02:40:51: SVCD2DVD: DVDfolders

    Generating DVD folders please wait....

    02:40:51: -->: DVDFolders creating VTS

    02:40:51: -->: VTS 02

    02:40:51:
    DVD Folders: Processing C:\Program Files\BadgerIT\SVCD2DVD v2\dummymenuNTSC.mpg...

    02:40:51:
    DVD Folders: Processing R:\midsomer murders-12_S2D.mpg...

    02:42:55:

    02:42:55:

    02:43:35:

    02:43:35: Creating TitleSet # 3
    02:43:35: SVCD2DVD: DVDfolders

    Generating DVD folders please wait....

    02:43:35: -->: DVDFolders creating VTS

    02:43:35: -->: VTS 03

    02:43:35:
    DVD Folders: Processing C:\Program Files\BadgerIT\SVCD2DVD v2\dummymenuNTSC.mpg...

    02:43:35:
    DVD Folders: Processing R:\midsomer murders-13_S2D.mpg...

    02:45:19:

    02:45:19:

    02:46:07:

    02:46:07: Creating TitleSet # 4
    02:46:07: SVCD2DVD: DVDfolders

    Generating DVD folders please wait....

    02:46:07: -->: DVDFolders creating VTS

    02:46:07: -->: VTS 04

    02:46:07:
    DVD Folders: Processing C:\Program Files\BadgerIT\SVCD2DVD v2\dummymenuNTSC.mpg...

    02:46:07:
    DVD Folders: Processing R:\midsomer murders-14_S2D.mpg...

    02:48:05:

    02:48:05:

    02:48:47:

    02:48:47: Creating TitleSet # 5
    02:48:47: SVCD2DVD: DVDfolders

    Generating DVD folders please wait....

    02:48:47: -->: DVDFolders creating VTS

    02:48:47: -->: VTS 05

    02:48:47:
    DVD Folders: Processing C:\Program Files\BadgerIT\SVCD2DVD v2\dummymenuNTSC.mpg...

    02:48:47:
    DVD Folders: Processing R:\midsomer murders-15_S2D.mpg...

    02:50:22:

    02:50:22:

    02:51:04:

    02:51:04: Finalising DVD...
    02:51:05: Encoding menu...

    ---------------------------- ENCODING MENU ----------------------------
    TV Standard: NTSC
    Image size: 720x540
    Resize size: 720x480
    ---------------------------- ENCODING MENU ----------------------------

    02:51:10: FFmpeg version CVS, Copyright (c) 2000-2004 Fabrice Bellard

    02:51:10: configuration: --enable-a52 --enable-gpl --enable-memalign-hack --disable-debug --enable-pthreads

    02:51:10: libavutil version: 49.0.0

    02:51:10: libavcodec version: 51.4.0

    02:51:10: libavformat version: 50.2.1

    02:51:10: built on Mar 14 2006 17:24:07, gcc: 3.4.4 (mingw special)

    02:51:10: Input #0, image2, from 'C:\Program Files\BadgerIT\SVCD2DVD v2\menu\background%d.jpg':

    02:51:10: Duration: 00:00:00.0, start: 0.000000, bitrate: N/A

    02:51:10: Stream #0.0, 25.00 fps(r): Video: mjpeg, yuvj420p, 720x480

    02:51:10: Output #0, rawvideo, to 'C:\Program Files\BadgerIT\SVCD2DVD v2\menu\backgroundES.mpv':

    02:51:10: Stream #0.0, 29.97 fps(c): Video: mpeg2video, yuv420p, 720x480, q=2-31, 1000 kb/s

    02:51:10: Stream mapping:

    02:51:10: Stream #0.0 -> #0.0

    02:51:10: video:155kB audio:0kB global headers:0kB muxing overhead 1.807267%

    02:51:14: INFO: [???] mplex version 2.0.0 (2.2.3 $Date: 2004/01/13 20:45:26 $)

    02:51:14: INFO: [???] File C:\Program Files\BadgerIT\SVCD2DVD v2\menu\backgroundES.mpv looks like an MPEG Video stream.

    02:51:14: INFO: [???] Video stream 0: profile 8 selected - ignoring non-standard options!

    02:51:14: INFO: [???] Found 0 audio streams and 1 video streams

    02:51:14: INFO: [???] Selecting dvdauthor DVD output profile

    02:51:14: INFO: [???] Multiplexing video program stream!

    02:51:14: INFO: [???] Scanning for header info: Video stream e0 (C:\Program Files\BadgerIT\SVCD2DVD v2\menu\backgroundES.mpv)

    02:51:14: INFO: [???] VIDEO STREAM: e0

    02:51:14: INFO: [???] Frame width : 720

    02:51:14: INFO: [???] Frame height : 480

    02:51:14: INFO: [???] Aspect ratio : 1:1 pixels

    02:51:14: INFO: [???] Picture rate : 29.970 frames/sec

    02:51:14: INFO: [???] Bit rate : variable

    02:51:14: INFO: [???] Vbv buffer size : 34816 bytes

    02:51:14: INFO: [???] CSPF : 0

    02:51:14: INFO: [???] SYSTEMS/PROGRAM stream:

    02:51:14: INFO: [???] rough-guess multiplexed stream data rate : 0001248

    02:51:14: INFO: [???] target data-rate specified : 10080000

    02:51:14: INFO: [???] Setting specified specified data rate: 10080000

    02:51:14: INFO: [???] Run-in Sectors = 88 Video delay = 12873 Audio delay = 0

    02:51:14: INFO: [???] New sequence commences...

    02:51:14: INFO: [???] Video e0: buf= 0 frame=000000 sector=00000000

    02:51:14: INFO: [???] STREAM e0 completed @ frame 14.

    02:51:14: INFO: [???] Multiplex completion at SCR=11995.

    02:51:14: INFO: [???] Video e0: buf= 160304 frame=000014 sector=00000080

    02:51:14: INFO: [???] VIDEO_STATISTICS: e0

    02:51:14: INFO: [???] Video Stream length: 161448 bytes

    02:51:14: INFO: [???] Sequence headers: 2

    02:51:14: INFO: [???] Sequence ends : 0

    02:51:14: INFO: [???] No. Pictures : 15

    02:51:14: INFO: [???] No. Groups : 2

    02:51:14: INFO: [???] No. I Frames : 2 avg. size 52917 bytes

    02:51:14: INFO: [???] No. P Frames : 14 avg. size 3890 bytes

    02:51:14: INFO: [???] No. B Frames : 0 avg. size 0 bytes

    02:51:14: INFO: [???] Average bit-rate : 2419200 bits/sec

    02:51:14: INFO: [???] Peak bit-rate : 1563200 bits/sec

    02:51:14: INFO: [???] BUFFERING min 80359 Buf max 135034

    02:51:14: INFO: [???] MUX STATUS: no under-runs detected.

    create sub file....done.
    running menu muxer....02:51:15: MUXRATE =4400

    02:51:15: after read_bmp(): xd=720 yd=480 x0=0 y0=0

    02:51:15: Found EOF in .sub file.

    02:51:15: warning, sub on line 0 starts before 4s, (some players won't show it)

    02:51:15: subtitle duration: -1

    02:51:15: ***************** HERE WE GO EVE.ODD *******************

    02:51:15: MenuType: EVEN

    02:51:15: subtitle_packet_size: 2332

    02:51:15: subtitle_packet_size & 1: 0

    02:51:15: subtitle_packet_size mod 2: 0

    02:51:15: MenuType==""

    02:51:15: MenuType=="EVEN"

    02:51:15: final subtitle_packet_size: 2332

    02:51:15: max_sub_size=2332

    02:51:15: skipped 0 bytes of garbage

    02:51:15: max_sub_size=2332

    02:51:15: 1 subtitles added, 0 subtitles skipped, stream: 32, offset: 0.18

    done.
    02:51:15: Encoding menu...Done.
    02:51:15: SVCD2DVD: DVDfolders

    Generating DVD folders please wait....

    02:51:15: -->: DVDFolders creating table of contents

    02:51:15: scanning R:\SVCD2DVD_OUTPUT\VIDEO_TS/VTS_01_0.IFO

    02:51:15: scanning R:\SVCD2DVD_OUTPUT\VIDEO_TS/VTS_02_0.IFO

    02:51:15: scanning R:\SVCD2DVD_OUTPUT\VIDEO_TS/VTS_03_0.IFO

    02:51:15: scanning R:\SVCD2DVD_OUTPUT\VIDEO_TS/VTS_04_0.IFO

    02:51:15: scanning R:\SVCD2DVD_OUTPUT\VIDEO_TS/VTS_05_0.IFO

    02:51:15: -->: Creating menu for TOC

    02:51:15:
    DVD Folders: Processing C:\Program Files\BadgerIT\SVCD2DVD v2\menu\menu.mpg...

    02:51:15:

    02:51:15:

    02:51:16: Finalising DVD...Done
    02:51:16: Done: Authoring DVD Folders


    djmobius
    Quote Quote  
  4. Member ChrissyBoy's Avatar
    Join Date
    Feb 2003
    Location
    Yorkshire!
    Search Comp PM
    Are you able to select the menu items when the dvd is played on the computer?
    SVCD2DVD v2.5, AVI/MPEG/HDTV/AviSynth/h264->DVD, PAL->NTSC conversion.
    VOB2MPG PRO, Extract mpegs from your DVDs - with you in control!
    Quote Quote  
  5. Yes. But not on a standalone recorder.

    On a standalone recorder the first movie is selected and can be played but none of the other four.

    djmobius
    Quote Quote  



Similar Threads