VideoHelp Forum

Our website is made possible by displaying online advertisements to our visitors. Consider supporting us by disable your adblocker or Try ConvertXtoDVD and convert all your movies to DVD. Free trial ! :)
+ Reply to Thread
Results 1 to 6 of 6
Thread
  1. Member
    Join Date
    Jan 2008
    Location
    United States
    Search Comp PM
    I took all these files and all but two converted correctly:

    VTS_01_1.VOB
    VTS_02_1.VOB
    VTS_03_1.VOB
    VTS_04_1.VOB
    VTS_05_1.VOB
    VTS_05_2.VOB this is the problem file...it is the smallest in the bath at 133.4 MB
    VTS_06_1.VOB
    VTS_07_1.VOB

    I get the following info:

    FFmpeg version CVS, Copyright (c) 2000-2004 Fabrice Bellard
    Mac OSX universal build for ffmpegX
    libavutil version: 49.0.0
    libavcodec version: 51.9.0
    libavformat version: 50.4.0
    Tue Jan 1 04:25:58 PST 2008
    OB':
    Duration: 00:03:11.9, start: 1491.393867, bitrate: 5831 kb/s
    Stream #0.0[0xa0]: Audio: pcm_s16be, 48000 Hz, stereo, 1536 kb/s
    Stream #0.1[0x1e0], 29.97 fps(r): Video: mpeg2video, yuv420p, 720x480, 7000 kb/s
    Could not open '/Users/bdaul/Desktop/dce/VIDEO_TS/VTS_05_2.VOB.ff.mov'

    IF I CHANGE THE OUTPUT FILE NAME I GET THIS ERROR:

    Encoding started on Tue Jan 1 04:27:06 PST 2008
    FFmpeg version CVS, Copyright (c) 2000-2004 Fabrice Bellard
    Mac OSX universal build for ffmpegX
    libavutil version: 49.0.0
    libavcodec version: 51.9.0
    libavformat version: 50.4.0
    Input #0, mpeg, from '/Users/bdaul/Desktop/dce/VIDEO_TS/VTS_05_2.VOB':
    Duration: 00:03:11.9, start: 1491.393867, bitrate: 5831 kb/s
    Stream #0.0[0xa0]: Audio: pcm_s16be, 48000 Hz, stereo, 1536 kb/s
    Stream #0.1[0x1e0], 29.97 fps(r): Video: mpeg2video, yuv420p, 720x480, 7000 kb/s
    Codec type mismatch for mapping #0.0 -> #0.0



    HELP! Any suggestions? Thanks, --bill
    Quote Quote  
  2. Explorer Case's Avatar
    Join Date
    Feb 2004
    Location
    Middle Earth
    Search Comp PM
    1/ You should consider joining the files VTS_05_1.VOB and VTS_05_2.VOB, as they belong to the same Video Title Set (05). Then you can convert the combined file to one output file, which should be more convenient for the viewer.

    2/ For "Codec type mismatch for mapping" errors, you should try setting the "Invert mapping" checkbox in the audio tab.
    Quote Quote  
  3. Member
    Join Date
    Jan 2008
    Location
    United States
    Search Comp PM
    Case,

    I tried the invert mapping box...but that didn't work. I just checked it and tried ENCODE again. I would still love to know why I can view this clip via VLC but can't do anything with it...tried HANDBRAKE too...

    Will see if I can figure out the joining part next.

    --thanks
    Quote Quote  
  4. Explorer Case's Avatar
    Join Date
    Feb 2004
    Location
    Middle Earth
    Search Comp PM
    Originally Posted by bdaul
    Why I can view this clip via VLC but can't do anything with it...
    VLC plays just about anything; good files, partial files and faulty files. The fact that VLC plays something, in no way implies that other tools can convert it.
    Quote Quote  
  5. Member
    Join Date
    Jan 2008
    Location
    United States
    Search Comp PM
    are there other tools to merge files together other than MTR 3.x? I guess I could try from the command line (unix) and hope I don't blow it.

    thx
    Quote Quote  
  6. Explorer Case's Avatar
    Join Date
    Feb 2004
    Location
    Middle Earth
    Search Comp PM
    The link I mentioned before, lists 6 tools to do it.
    Quote Quote  



Similar Threads