VideoHelp Forum

Our website is made possible by displaying online advertisements to our visitors. Consider supporting us by disable your adblocker or Try ConvertXtoDVD and convert all your movies to DVD. Free trial ! :)
+ Reply to Thread
Page 2 of 2
FirstFirst 1 2
Results 31 to 56 of 56
Thread
  1. Explorer Case's Avatar
    Join Date
    Feb 2004
    Location
    Middle Earth
    Search Comp PM
    Originally Posted by jp83
    I did what you said about control clicking...first tried as "download linked file" and got a txt file, then tried "download linked file as..." and chose zip, but still got a txt file...
    Just save it with the default name; the file is not zipped. Don't do anything with the file, except locating it in the installer window. It doesn't matter what type of file the Finder thinks it is, or even its name. The installer will take care of (read: change) that. If your downloaded file is 501,480 bytes, it will be okay.

    Originally Posted by jp83
    converted a small flv file to avi without the 3rd part & seems to work okay...do I really need it? or is it for other than avi conversions, like for dvds or something?
    mpeg2enc is only used for conversions to MPEG-1/-2 formats.

    Use Option-click (Alt-click) to download directly to the default download location (most likely the Desktop). [Safari + Firefox]
    Use Control-click to activate the contextual menu for links. [Safari + Firefox]
    Use Command-click (Apple (Clover)-click) to open a link in a new tab (if tabbed browsing is activated) behind the current tab. [Safari + Firefox]
    For Safari, choose Download Linked File from the contextual menu.
    For Firefox, choose Save Link As... from the contextual menu.
    Just clicking the link in Firefox should bring up a dialog box, stating that it is a binary file and suggesting that you just save it to disk as-is, and not turn it into a QuickTime movie file, unless you have some really weird configuration.
    Quote Quote  
  2. Member
    Join Date
    Nov 2007
    Location
    United States
    Search Comp PM
    okay...I think that worked! (fingers crossed )

    when I control/clicked and chose "download linked file" it downloaded to the desktop with a txt at the end of the file name - did this automatically I had no hand in doing that -

    but, then I tried "download linked file as..." and when the name came up, I dropped the .txt part before saving to desktop and that seems to have worked!

    I'm converting a mov file to dvd-mpeg2 right now, so I'll let you know...at least it didnt "ding" after 1 second...

    but it DID "ding" after 1 second when I tried to convert the same mov file to dvd-ffmpegx with this info in the progress window:


    Encoding started on Mon Mar 17 11:18:35 EDT 2008
    FFmpeg version CVS, Copyright (c) 2000-2004 Fabrice Bellard
    Mac OSX universal build for ffmpegX
    libavutil version: 49.0.0
    libavcodec version: 51.9.0
    libavformat version: 50.4.0
    Input #0, mov,mp4,m4a,3gp,3g2,mj2, from '/Users/.m4v':
    Duration: 00:22:14.2, start: 0.000000, bitrate: 1587 kb/s
    Stream #0.0(eng): Audio: aac, 44100 Hz, stereo
    Stream #0.1(eng), 29.97 fps(r): Video: drmi / 0x696D7264, 640x480
    Codec type mismatch for mapping #0.0 -> #0.0


    sooo...should I be worried about that now?

    hope not!

    thanks for the help...I'll keep you informed (bet you're just thrilled about that, huh?)
    Quote Quote  
  3. Explorer Case's Avatar
    Join Date
    Feb 2004
    Location
    Middle Earth
    Search Comp PM
    Originally Posted by jp83
    it downloaded to the desktop with a txt at the end of the file name
    That would have worked, too. The installer doesn't really care about the filename or suffix.

    Originally Posted by jp83
    Input #0 from 'foo.m4v':
    Stream #0.0(eng): Audio: aac, 44100 Hz, stereo
    Stream #0.1(eng), 29.97 fps(r): Video: drmi / 0x696D7264, 640x480
    Codec type mismatch for mapping #0.0 -> #0.0
    The ffmpeg presets are picky about the stream order: it wants video before audio. If it is reversed, you'll have to tell ffmpegX how to deal with that, by setting the "Invert mapping" checkbox in the Audio tab. If you see this error, tick the checkbox and try again.
    If you search the forum for "Codec type mismatch for mapping", you'll find that it is a quite common error that a lot of users encounter, especially with MOVs and WMVs.

    Originally Posted by jp83
    Video: drmi / 0x696D7264
    If I'm not mistaken, then that video file is DRM'ed and may be tough to convert.
    Quote Quote  
  4. Member
    Join Date
    Nov 2007
    Location
    United States
    Search Comp PM
    yes, I think you're right about it being hard to convert...original is in m4v format...bought it from itunes and want to put it on dvd so I can watch it on my TV, but converting it to dvd-mpeg2 got me an 11 minute version of a 22 minute show but only a gray screen for 11 minutes, no picture or sound

    maybe I'll try switching video & audio and converting to dvd-ffmpeg format? or will that be futile, too?

    and does that mean that ffmpegx can't convert a m4v file to a dvd version? if so, then I guess I won't be buying anything from itunes anymore...

    thanks again. sorry to keep bothering you
    Quote Quote  
  5. Member
    Join Date
    Mar 2008
    Location
    United States
    Search Comp PM
    so i downloaded ffmpeg and i have been getting some of my favorite videos off youtube and such, and converting them to avi format. this worked for a while and now i cant get anything converted whatsoever. i dont know what i did to mess it up. i tried uninstalling and reinstalling everything but it still doesnt work. ive also tried inverting the audio mapping and taking out all the underscores from the title. here is the error message with invert mapping clicked
    FFmpeg version CVS, Copyright (c) 2000-2004 Fabrice Bellard
    Mac OSX universal build for ffmpegX
    libavutil version: 49.0.0
    libavcodec version: 51.9.0
    libavformat version: 50.4.0
    Sun Mar 23 19:07:41 MST 2008
    [flv @ 0x5597b8]Unsupported video codec (4)
    .
    .
    .
    [flv @ 0x5597b8]Unsupported video codec (4)
    Seems that stream 0 comes from film source: 1000.00 (1000/1) -> 30.00 (30/1)
    Input #0, flv, from '/Users/jessebenton/Desktop/speech.flv':
    Duration: 00:37:02.7, bitrate: N/A
    Stream #0.0, 30.00 fps(r): Video: 0x0004
    Stream #0.1: Audio: mp3, 44100 Hz, stereo
    Codec type mismatch for mapping #0.1 -> #0.0
    ------------
    here is the error message with out invert mapping clicked
    FFmpeg version CVS, Copyright (c) 2000-2004 Fabrice Bellard
    Sun Mar 23 19:07:48 MST 2008
    Mac OSX universal build for ffmpegX
    libavutil version: 49.0.0
    libavcodec version: 51.9.0
    libavformat version: 50.4.0
    [flv @ 0x5597b8]Unsupported video codec (4)
    .
    .
    .
    [flv @ 0x5597b8]Unsupported video codec (4)
    Seems that stream 0 comes from film source: 1000.00 (1000/1) -> 30.00 (30/1)
    Input #0, flv, from '/Users/jessebenton/Desktop/speech.flv':
    Duration: 00:37:02.7, bitrate: N/A
    Stream #0.0, 30.00 fps(r): Video: 0x0004
    Stream #0.1: Audio: mp3, 44100 Hz, stereo
    Output #0, avi, to '/Users/jessebenton/Desktop/speech.flv.ff.avi':
    Stream #0.0, 23.98 fps(c): Video: mpeg4, yuv420p, 640x272, q=2-15, 940 kb/s
    Stream #0.1: Audio: mp3, 48000 Hz, stereo, 128 kb/s
    Stream mapping:
    Stream #0.0 -> #0.0
    Stream #0.1 -> #0.1
    Unsupported codec (id=0) for input stream #0.0

    please help!
    Quote Quote  
  6. Explorer Case's Avatar
    Join Date
    Feb 2004
    Location
    Middle Earth
    Search Comp PM
    Originally Posted by JESSEBENTON
    [flv @ 0x5597b8]Unsupported video codec (4)
    Input #0, flv, from 'speech.flv':
    Duration: 00:37:02.7, bitrate: N/A
    Stream #0.0, 30.00 fps(r): Video: 0x0004
    Stream #0.1: Audio: mp3, 44100 Hz, stereo
    "Unsupported video codec," seems quite clear... FLV can come with a small variety of video codecs. Video: 0x0004 is On2 VP6 (fourcc:vp6f), which is not supported by the version of ffmpeg in ffmpegX.
    It is however supported by Perian, so you could try a presets that allows Decoding with QuickTime (e.g. XviD ffmpeg).
    Quote Quote  
  7. Member
    Join Date
    Mar 2008
    Location
    United States
    Search Comp PM
    for real? i have no idea what goes on with these programs, i thought if it was flv it would convert it. its not that simple?
    Quote Quote  
  8. Member
    Join Date
    Apr 2008
    Location
    United States
    Search Comp PM
    Hi everyone, specially Case, you sound like the man with the plan. I just heard about this ffmpgx application and I can't get it to work. I think I have the three extra files, and I have the right intel codecs downloaded, but I'm still getting it to ding positive, and I switched the quicktime interlaced box to make it read the video before the audio as well. This is what I get...any help would be appreciated, thanks....

    Encoding started on Wed Apr 9 08:32:53 PDT 2008
    FFmpeg version CVS, Copyright (c) 2000-2004 Fabrice Bellard
    Mac OSX universal build for ffmpegX
    libavutil version: 49.0.0
    libavcodec version: 51.9.0
    libavformat version: 50.4.0
    [mov,mp4,m4a,3gp,3g2,mj2 @ 0x5597b8]negative ctts, ignoring
    Input #0, mov,mp4,m4a,3gp,3g2,mj2, from '/Users/Main/Documents/allineedfine Comp 1.mov':
    Duration: 00:03:49.0, start: 0.000000, bitrate: 10717 kb/s
    Stream #0.0(eng), 29.97 fps(r): Video: h264, yuv420p, 360x240
    Stream #0.1(eng): Audio: fl32 / 0x32336C66, 44100 Hz, stereo
    Codec type mismatch for mapping #0.1 -> #0.0
    Quote Quote  
  9. Explorer Case's Avatar
    Join Date
    Feb 2004
    Location
    Middle Earth
    Search Comp PM
    Originally Posted by vent89ster
    Input #0, mov,mp4,m4a,3gp,3g2,mj2, from 'foo.mov':
    Stream #0.0(eng), 29.97 fps(r): Video: h264, yuv420p, 360x240
    Stream #0.1(eng): Audio: fl32 / 0x32336C66, 44100 Hz, stereo
    Codec type mismatch for mapping #0.1 -> #0.0
    Your source file already has video (stream #0.0) before audio (stream #0.1), so you don't need "Invert mapping".

    Originally Posted by vent89ster
    I switched the quicktime interlaced box
    The Decode with QuickTime and (De-)interlace boxes are not related, and neither has to do with the stream mapping.
    Quote Quote  
  10. Member
    Join Date
    Apr 2008
    Location
    United States
    Search Comp PM
    But when I try it with the invert mapping thing regular I get an error that looks like this

    FFmpeg version CVS, Copyright (c) 2000-2004 Fabrice Bellard
    Wed Apr 9 15:21:35 PDT 2008
    Mac OSX universal build for ffmpegX
    libavutil version: 49.0.0
    libavcodec version: 51.9.0
    libavformat version: 50.4.0
    [mov,mp4,m4a,3gp,3g2,mj2 @ 0x5597b8]negative ctts, ignoring
    Input #0, mov,mp4,m4a,3gp,3g2,mj2, from '/Users/Main/Documents/allineedfine Comp 1.mov':
    Duration: 00:03:49.0, start: 0.000000, bitrate: 10717 kb/s
    Stream #0.0(eng), 29.97 fps(r): Video: h264, yuv420p, 360x240
    Stream #0.1(eng): Audio: fl32 / 0x32336C66, 44100 Hz, stereo
    Output #0, flv, to '/Users/Main/Documents/allineedfine Comp 1.mov.ff.flv':
    Stream #0.0, 12.00 fps(c): Video: flv, yuv420p, 320x240, q=2-15, 200 kb/s
    Stream #0.1: Audio: mp3, 22050 Hz, stereo, 56 kb/s
    Stream mapping:
    Stream #0.0 -> #0.0
    Stream #0.1 -> #0.1
    Unsupported codec (id=0) for input stream #0.1
    Quote Quote  
  11. Explorer Case's Avatar
    Join Date
    Feb 2004
    Location
    Middle Earth
    Search Comp PM
    Originally Posted by vent89ster
    Input #0:
    Stream #0.1(eng): Audio: fl32 / 0x32336C66, 44100 Hz, stereo
    Unsupported codec (id=0) for input stream #0.1
    The audio that is used in the MOV ("fl32": 32-bit floating point) is not supported by the decoder.
    If you have QuickTime Pro, try exporting the audio to 16 bits.
    Quote Quote  
  12. Member
    Join Date
    Apr 2008
    Location
    United States
    Search Comp PM
    Thanks Case but now I have a new issue...I went in changed it to 32 bits took of the invert part, and now it says must set width value for the encoded video that is divisable by 16. I dont understand what this is referring to. I didnt think the size mattered but my project needs to stay 360 x 240...any suggestions?
    Quote Quote  
  13. Member
    Join Date
    Apr 2008
    Location
    United States
    Search Comp PM
    Hi there,

    Trying to convert .rmvb into .mpeg to watch on Tivo.
    Pretty sure I installed erything: mplayer, mencoder and mpeg2enc.intel files
    Copied perian files into /library/application support/ffmpegx

    Here's the message:

    INFO: [yuvscaler] yuvscaler 1.9.0 (15-02-2004) is a general scaling utility for yuv frames
    Thu Apr 10 01:18:45 PDT 2008
    ++ WARN: [mpeg2enc] MPEG bitrate must be a multiple of 400 - rounding up
    INFO: [mpeg2enc] SETTING AltiVec for MOTION!
    INFO: [mpeg2enc] SETTING AltiVec for TRANSFORM!
    INFO: [mpeg2enc] SETTING AltiVec for PREDICTION!
    INFO: [yuvscaler] (C) 2001-2004 Xavier Biquard <xbiquard@free.fr>, yuvscaler -h for help, or man yuvscaler
    movtoy4m
    Copyright 2002-2006 Johan Lindström
    All rights reserved..
    ERROR: Could not open movie: /Volumes/External/TV shows/Crippled/Crippled Avengers.rmvb
    **ERROR: [yuvscaler] Could'nt read YUV4MPEG header!
    **ERROR: [mpeg2enc] Could not read YUV4MPEG2 header: system error (failed read/write)!

    The .rmvb file reads perfectly with real player.

    Thanks for the Help.
    Quote Quote  
  14. Explorer Case's Avatar
    Join Date
    Feb 2004
    Location
    Middle Earth
    Search Comp PM
    Originally Posted by vent89ster
    my project needs to stay 360 x 240
    ffmpegX will only encode if the width of the output video size is divisible by 16. 360/16=22.5, which makes 360 an invalid width for ffmpegX. 368 would be valid. You could black out the 8 pixels (pillarbox), but there's nothing I can suggest for this app to stay with 360 wide.
    Quote Quote  
  15. Explorer Case's Avatar
    Join Date
    Feb 2004
    Location
    Middle Earth
    Search Comp PM
    Originally Posted by Kavelian
    [...]
    Please don't hijack topics with new and unrelated issues, but create a new topic instead.
    Quote Quote  
  16. Member
    Join Date
    Apr 2008
    Location
    United States
    Search Comp PM
    Originally Posted by Case
    Originally Posted by Kavelian
    [...]
    Please don't hijack topics with new and unrelated issues, but create a new topic instead.
    sorry, didn't mean to hijack
    Not used to forums.
    Quote Quote  
  17. Member
    Join Date
    May 2008
    Location
    United States
    Search Comp PM
    This problem happened to me. If your source is a quicktime file, you NEED to have the .mov extension in the file name. For some reason, if you don't, ffmpeg will just jump to finish without encoding anything. Simply add .mov to the end of your file.
    Quote Quote  
  18. Member
    Join Date
    May 2008
    Location
    Brazil
    Search Comp PM
    I did everything that all of you ask to do, all Intel files were installed, I put all the files at correct place, downdload Perian and install it, but I can't encode RMVB file to h.264 using mencoder option. When I click play button I can see RMVB movie without problem but when I try to encode it just doesn't work, it jumps to finished.

    See below Process Information:

    /bin/sh: -c: line 0: syntax error near unexpected token `('
    /bin/sh: -c: line 0: `printf "Encoding started on " && date && '/Library/Application Support/ffmpegX/mencoder' /Users/ADRIANO/Desktop/Lost411.rmvb -ovc x264 -nosound -ni -sws 0 -x264encopts threads=2:me=2:bitrate=940:qp_min=22:qp_max=51:i4x 4:keyint=120:nocabac:deblock:nob_adapt -ofps NTSC FILM (29.97) -vop scale=624:352,pp=0x33,harddup -of rawvideo -o /Users/ADRIANO/Desktop/Lost411.264 && /Users/ADRIANO/Desktop/ffmpegX_0.0.9y/ffmpegX.app//Contents/Resources/movtowav -o /Users/ADRIANO/Desktop/Lost411.wav /Users/ADRIANO/Desktop/Lost411.rmvb && /Users/ADRIANO/Desktop/ffmpegX_0.0.9y/ffmpegX.app//Contents/Resources/normalize /Users/ADRIANO/Desktop/Lost411.wav && /Users/ADRIANO/Desktop/ffmpegX_0.0.9y/ffmpegX.app//Contents/Resources/ffmpeg -i /Users/ADRIANO/Desktop/Lost411.264 -i /Users/ADRIANO/Desktop/Lost411.wav -y -vn -f mp4 -acodec aac -ab 128 -ar 48000 -ac 2 -map 1.0:0.0 /Users/ADRIANO/Desktop/Lost411.aac.mp4 && /Users/ADRIANO/Desktop/ffmpegX_0.0.9y/ffmpegX.app//Contents/Resources/mp4box -fps NTSC FILM (29.97) -add /Users/ADRIANO/Desktop/Lost411.264 -add /Users/ADRIANO/Desktop/Lost411.aac.mp4 -new /Users/ADRIANO/Desktop/Lost411.mp4 && rm /Users/ADRIANO/Desktop/Lost411.wav && rm /Users/ADRIANO/Desktop/Lost411.264 && rm /Users/ADRIANO/Desktop/Lost411.aac.mp4 && printf "Encoding completed on " && date && printf "\a"'

    Please, help me!!!

    Thanks
    Adriano
    Quote Quote  
  19. Explorer Case's Avatar
    Join Date
    Feb 2004
    Location
    Middle Earth
    Search Comp PM
    Originally Posted by Acardoso
    syntax error near unexpected token `('
    -ofps NTSC FILM (29.97)
    -fps NTSC FILM (29.97)
    The specified framerate is generating a syntax error.
    NTSC FILM is 23.976 fps; NTSC is 29.97 fps;
    NTSC FILM (29.97) is erroneous, as it mixes these two standards.
    Quote Quote  
  20. Member
    Join Date
    May 2008
    Location
    Brazil
    Search Comp PM
    Case, thanks for the information, it fixed part of problem but I still can't encode the .rmvb video to h.264 or also MP4 so I can watch the video on my iPod Classic, as I saw here on this forum I must choose mencoder options and that's the problem cause I choose h.264 mencoder, I change the video frame rate as you told and I start to encode the video. OK, with video encoded program creates a file with extension .264 instead of MP4 and I can't move this file to iTunes, I tried another options to encode it but nothing works, so, I need to know if I did the correct think or if I'm still doing something wrong.

    During encoding proccess to h.264 I have the following informations:

    Encoding started on Thu May 15 11:55:30 BRT 2008
    MEncoder dev-CVS-060307-04:23-4.0.1 (C) 2000-2006 MPlayer Team
    Mac OSX static build for ffmpegX
    FIXME:Hardenabling SSE and SSE2 without detection
    CPU: Intel (Family: 6, Stepping: 2)
    CPUflags: Type: 6 MMX: 1 MMX2: 1 3DNow: 0 3DNow2: 0 SSE: 1 SSE2: 1
    Compiled for x86 CPU with extensions: MMX MMX2 SSE SSE2
    success: format: 0 data: 0x0 - 0x89956a1
    REAL file format detected.
    Stream description: Audio Stream
    Stream mimetype: audio/x-pn-realaudio
    Stream description: Video Stream
    Stream mimetype: video/x-pn-realvideo
    Stream mimetype: logical-fileinfo
    VIDEO: [RV40] 624x352 24bpp 23.000 fps 0.0 kbps ( 0.0 kbyte/s)
    Error: dlopen(/Library/Application Support/ffmpegX/reallib/drvc.so, 1): no suitable image found. Did find:
    /Library/Application Support/ffmpegX/reallib/drvc.so: unknown file type, first eight bytes: 0x7F 0x45 0x4C 0x46 0x01 0x01 0x01 0x00
    Error: dlopen(/Library/Application Support/ffmpegX/reallib/drv4.so.6.0, 1): image not found
    size:624x352 fps:23.00 ftime:=0.0435
    Opening video filter: [expand osd=1]
    Expand: -1 x -1, -1 ; -1, osd: 1, aspect: 0.000000, round: 1
    Opening video filter: [scale w=624 h=352]
    Opening video filter: [pp=0x33]
    Opening video filter: [harddup]
    ================================================== ========================
    Opening video decoder: [realvid] RealVideo decoder
    Read the RealVideo section of the DOCS!
    VDecoder init failed
    Opening video decoder: [realvid] RealVideo decoder
    n of the DOCS!
    VDecoder init failed
    Opening video decoder: [realvid] RealVideo decoder
    Read the RealVideo section of the DOCS!
    VDecoder init failed
    Opening video decoder: [realvid] RealVideo decoder
    Selected video codec: [rv40mac] vfm: realvid (Mac OS X RealPlayer 9 RV40 decoder)
    ================================================== ========================
    VDec: vo config request - 624 x 352 (preferred colorspace: Planar I420)
    [PP] Using external postprocessing filter, max q = 6.
    x264 [info]: no need for a SAR
    x264 [info]: using cpu capabilities MMX MMXEXT SSE SSE2
    0 as output csp (no 0)
    Movie-Aspect is 1.77:1 - prescaling to correct movie aspect.
    SwScaler: using unscaled Planar YV12 -> Planar YV12 special converter
    2 duplicate frame(s)!
    2 duplicate frame(s)!
    1 duplicate frame(s)!
    1 duplicate frame(s)!
    1 duplicate frame(s)!
    1 duplicate frame(s)!
    1 duplicate frame(s)!
    1 duplicate frame(s)!
    1 duplicate frame(s)!
    1 duplicate frame(s)!
    1 duplicate frame(s)!

    At the end it shows the encoding proccess is OK and file was encoded succesfully.

    Please give me your comments.

    Thanks
    Adriano
    Quote Quote  
  21. Member
    Join Date
    Sep 2008
    Location
    United States
    Search Comp PM
    I was having the same problem, converting to .wmv files. They play fine in Quicktime. I did the invert mapping and the decode with QT, but it continues to fail encoding. This is the progress thing...

    Encoding started on Sun Sep 21 15:19:28 EDT 2008
    Seems that stream 1 comes from film source: 1000.00 (1000/1) -> 25.00 (25/1)
    Input #0, asf, from '/Users/elizabeth/Movies/RH/toptenallan.wmv':
    Duration: 00:06:55.3, start: 3.000000, bitrate: 656 kb/s
    Stream #0.0: Audio: 0x0162, 32000 Hz, stereo, 48 kb/s
    Stream #0.1: Video: WMV3, 640x380, 1000.00 fps
    Output #0, dv, to '/Users/elizabeth/Movies/RH/toptenallan.wmv.ff.dv':
    Stream #0.0: Video: dvvideo, 720x480, 29.97 fps, q=2-15, 25000 kb/s
    Stream #0.1: Audio: pcm_s16le, 48000 Hz, stereo, 1536 kb/s
    Stream mapping:
    Stream #0.1 -> #0.0
    Stream #0.0 -> #0.1
    Unsupported codec (id=0) for input stream #0.0


    What can I do to convert this into something that will work in iMovie?
    Quote Quote  
  22. Explorer Case's Avatar
    Join Date
    Feb 2004
    Location
    Middle Earth
    Search Comp PM
    Originally Posted by contedefees
    Stream #0.0: Audio: 0x0162, 32000 Hz, stereo, 48 kb/s
    Unsupported codec (id=0) for input stream #0.0
    AFAIK, audio "0x0162" (wma9dmo) (WMA Pro audio) is not supported by ffmpeg.
    Quote Quote  
  23. Member
    Join Date
    Sep 2008
    Location
    United States
    Search Comp PM
    oh ok! thanks so much for answering! is it possible to encode the video without the audio?
    Quote Quote  
  24. Explorer Case's Avatar
    Join Date
    Feb 2004
    Location
    Middle Earth
    Search Comp PM
    De-selecting the 'Encode Audio' checkbox should encode just the video.
    I'm not sure if doing so would produce a valid DV file, though. Perhaps DV needs video plus audio.
    Quote Quote  
  25. Member
    Join Date
    Sep 2008
    Location
    United States
    Search Comp PM
    I'm trying to convert from .avi to DVD mpeg but keep getting the similar problem: 1 second to ding and then no file shows up.

    info provided:
    INFO: [yuvscaler] yuvscaler 1.9.0 (15-02-2004) is a general scaling utility for yuv frames
    Tue Sep 23 19:51:39 EDT 2008
    INFO: [yuvscaler] (C) 2001-2004 Xavier Biquard <xbiquard@free.fr>, yuvscaler -h for help, or man yuvscaler
    /bin/sh: /Library/Application Support/ffmpegX/mpeg2enc: Malformed Mach-o file
    movtoy4m
    Copyright 2002-2006 Johan Lindström
    All rights reserved..
    ++ WARN: [yuvscaler] Could not infer norm (PAL/SECAM or NTSC) from input data (frame size=720x480, frame rate=24000:1001 fps)!!
    INFO: [yuvscaler] input: frame size: 720x480 pixels (518400 bytes)
    INFO: [yuvscaler] input: chroma: 4:2:0 JPEG/MPEG-1 (interstitial)
    INFO: [yuvscaler] input: frame rate: 24000/1001 fps (~23.976024)
    INFO: [yuvscaler] input: interlace: none/progressive
    INFO: [yuvscaler] input: sample aspect ratio: 1:1
    INFO: [yuvscaler] from 720x480, take 720x480+0+0, NOT_INTERLACED/PROGRESSIVE
    INFO: [yuvscaler] scale to 720x480, 720x480 being displayed
    INFO: [yuvscaler] Scaling uses the RESAMPLE algorithm,
    INFO: [yuvscaler] frame rate: 23.976 fps
    INFO: [yuvscaler] Scaling ratio for width is 1 to 1
    INFO: [yuvscaler] and is 1 to 1 for height
    INFO: [yuvscaler] Specific downscaling routing number 4

    Any help would be great.
    Quote Quote  
  26. Member
    Join Date
    Aug 2005
    Location
    Palo Alto, California USA
    Search Comp PM
    Originally Posted by KeyserSoze11
    I'm trying to convert from .avi to DVD mpeg but keep getting the similar problem: 1 second to ding and then no file shows up.

    info provided:
    INFO: [yuvscaler] yuvscaler 1.9.0 (15-02-2004) is a general scaling utility for yuv frames
    Tue Sep 23 19:51:39 EDT 2008
    INFO: [yuvscaler] (C) 2001-2004 Xavier Biquard <xbiquard@free.fr>, yuvscaler -h for help, or man yuvscaler
    /bin/sh: /Library/Application Support/ffmpegX/mpeg2enc: Malformed Mach-o file
    movtoy4m
    Copyright 2002-2006 Johan Lindström
    All rights reserved..
    ++ WARN: [yuvscaler] Could not infer norm (PAL/SECAM or NTSC) from input data (frame size=720x480, frame rate=24000:1001 fps)!!
    INFO: [yuvscaler] input: frame size: 720x480 pixels (518400 bytes)
    INFO: [yuvscaler] input: chroma: 4:2:0 JPEG/MPEG-1 (interstitial)
    INFO: [yuvscaler] input: frame rate: 24000/1001 fps (~23.976024)
    INFO: [yuvscaler] input: interlace: none/progressive
    INFO: [yuvscaler] input: sample aspect ratio: 1:1
    INFO: [yuvscaler] from 720x480, take 720x480+0+0, NOT_INTERLACED/PROGRESSIVE
    INFO: [yuvscaler] scale to 720x480, 720x480 being displayed
    INFO: [yuvscaler] Scaling uses the RESAMPLE algorithm,
    INFO: [yuvscaler] frame rate: 23.976 fps
    INFO: [yuvscaler] Scaling ratio for width is 1 to 1
    INFO: [yuvscaler] and is 1 to 1 for height
    INFO: [yuvscaler] Specific downscaling routing number 4

    Any help would be great.
    Your error log shows that mpeg2enc is the problem. "Malformed Mach-o file" means "this file is fooched. Please reinstall mpeg2enc and pray to the gods of digital that the install goes better this time."

    Also do a search on this forum for "malformed" and click on any response by Case. One of his posts linked to an alternative download location for mpeg2enc that seems to help some folks with a persistent malformation problem.

    Or go see a dermatologist about that condition.

    --Cheers,
    Quote Quote  



Similar Threads