VideoHelp Forum

Try DVDFab and download streaming video, copy, convert or make Blu-rays,DVDs! Download free trial !
+ Reply to Thread
Results 1 to 29 of 29
Thread
  1. Member
    Join Date
    Nov 2005
    Location
    United Kingdom
    Search Comp PM
    when i create a dvd with 2.5 i can see vertical lines, these are not there when I use 2.1. I have tried various xvids and the outcome is the same with all of them, lines on 2.5, none on 2.1

    I have also tried this on another pc(clean install with xp and then vista x32) and a laptop and the same happens
    Quote Quote  
  2. Member ChrissyBoy's Avatar
    Join Date
    Feb 2003
    Location
    Yorkshire!
    Search Comp PM
    Ok. Can you post your log or email me so that i can try the same source?
    SVCD2DVD v2.5, AVI/MPEG/HDTV/AviSynth/h264->DVD, PAL->NTSC conversion.
    VOB2MPG PRO, Extract mpegs from your DVDs - with you in control!
    Quote Quote  
  3. Member
    Join Date
    Nov 2005
    Location
    United Kingdom
    Search Comp PM
    Here is the log from 2.1

    ************************************************** ******************
    ************************ SYSTEM INFORMATION ************************
    ************************************************** ******************

    ***************************** SVCD2DVD *****************************

    Name: SVCD2DVD 2.1
    Title: 2.1
    Version: 2.1.2474.30185
    Executable: C:\Program Files\BadgerIT\SVCD2DVD v2\SVCD2DVD.exe
    Executable size: 2.86 MB
    Executable size in bytes: 3006547
    Executable CreationTime: 10/10/2006 16:57:38
    Executable LastWriteTime: 08/06/2007 11:25:12
    Executable LastAccessTime: 09/06/2007 13:05:24

    ************************* Operating System *************************

    Operating System: Microsoft Windows XP Professional
    Service Pack: Service Pack 2
    Version : 5.1.2600
    Windows Directory : C:\WINDOWS

    OSLanguage: 1033
    CodeSet: 1252
    CountryCode: 44
    Local: 0809

    Total Physical Memory: 1.99 GB
    Free Physical Memory: 1.29 GB
    Total Virtual Memory: 1.99 GB
    Free Virtual Memory: 1.95 GB

    ***************************** Computer *****************************

    Computer Manufacturer Name: MSI
    Computer Model: MS-7250
    System Type: X86-based PC
    Computer Name: PDS-40466724245
    DomainRole: x2c3419cdc9b8e007
    Number Of Processors: 2
    User Name: PDS-40466724245\pds

    ***************************** Processor ****************************

    Manufacturer: AuthenticAMD
    Processor: AMD Athlon(tm) 64 X2 Dual Core Processor 4600+
    Description: x86 Family 15 Model 75 Stepping 2
    CPU Speed: 2.399GHz
    CPU FSB: 200MHz
    L2 Cache Size: 1.00 KB

    Manufacturer: AuthenticAMD
    Processor: AMD Athlon(tm) 64 X2 Dual Core Processor 4600+
    Description: x86 Family 15 Model 75 Stepping 2
    CPU Speed: 2.399GHz
    CPU FSB: 200MHz
    L2 Cache Size: 1.00 KB

    14:05:34: Logical CPUs: 2
    ***************************** Time Zone ****************************

    Time Zone: (GMT) Greenwich Mean Time : Dublin, Edinburgh, Lisbon, London

    ****************************** VIDEO *******************************

    Name: NVIDIA GeForce 6800
    Processor: GeForce 6800
    Mode: 1280 x 1024 x 4294967296 colors
    Video Ram: 128 MB
    Status: OK

    ****************************** Drives *******************************

    DeviceID: C:
    FileSystem: NTFS
    Size: 232 GB
    FreeSpace: 81.1 GB

    DeviceID: E:
    FileSystem: NTFS
    Size: 114 GB
    FreeSpace: 78.6 GB

    DeviceID: G:
    FileSystem: NTFS
    Size: 232 GB
    FreeSpace: 213 GB

    ************************************************** ******************
    ********************* END OF SYSTEM INFORMATION ********************
    ************************************************** ******************

    ************************* ProjectMetaData **************************

    <SVCD2DVD DateTime="09/06/2007 14:05:34" Filename="NONE"><AssetSet><Asset ID="51db2f63-65be-4940-af33-5e8f946bdf19" Path="C:\avimux" Filename="sling.avi" /></AssetSet><DVDStructure><TitleSet Name="New Movie" PostCmd="" MenuButtonType="0"><MenuButton X1="0" Y1="0" X2="262" Y2="49" FontFamily="Tahoma" FontSize="28" FontStyle="3">Menu Button</MenuButton><Title Name="sling.avi" AssetID="51db2f63-65be-4940-af33-5e8f946bdf19" MplexOffset="0" /></TitleSet><DVDMenu Normal="-1" Highlight="-65536" Active="-16711681" ShowPlayAllButton="False" DSOffsetWidth="1" DSOffsetHeight="1" DSColor="0" DSOnOff="True" BackgroundImagePath="C:\Program Files\BadgerIT\SVCD2DVD v2\default.jpg" AudioPath="" /></DVDStructure><Settings><General InitialAssetFolder="" InitialDVDFolder="E:\" InitialProjectFolder="E:\" InitialMenuBackgroundFolder="" DeleteS2DFiles="False" UseDVDShrink="False" /><Menu AudioEncoding="Custom_ac3" DefaultCustomAudioPath="" DefaultCustomImagePath="" TVStandard="NTSC" FontFamily="Tahoma" FontSize="28" FontStyle="3" PlayAllText="Play All" Loop="True" ShowMenuStandardWarning="True" EncodeVideo2AudioDuration="False" /><Process AudioEncoding="ac3" Chapters="Every 10 mins" SkipMPA48="False" SkipAC3="True" PanSan="False" MergeTitles="False" UsePulldown="True" PAL2NTSC="False" AVI2PASS="False" AVI2HALFD1="FS" NoBframes_FullME="False" UseCustomMatrices="False" IntraMatrix="" NonIntraMatrix="" TVOverscanPixels="0" UseThreads="True" ForceWS="False" SafeMaxBitRate="False" /><Program BINExtraction="vcdxrip" VCDGearFIX="False" FastAudioEncode="True" /><Burning BurningMethod="ImgBurn 2+" DVDDrive="PIONEER DVD-RW DVR-109 " NeroWriteSpeed="Max" Eject="False" HighDVDCompat="False" VerifyDVD="False" ImgBurnPath="C:\Program Files\ImgBurn\ImgBurn.exe" DVDDErase="True" DVDDClose="False" DVDDDontBurn="False" /></Settings></SVCD2DVD>

    ************************* ProjectMetaData **************************
    Processing assets for DVD creation

    =================== AV Details ===================
    File Size: 697 MB
    file=C:\avimux\sling.avi
    FormatName=avi
    Num_Frames=129583
    DurationInSecs=5404
    Duration=01:30:04.0
    VideoCodec=mpeg4
    Width=624
    Height=352
    Standard=NTSC (Film)
    BitRate=1082
    AudioStreamCount=1
    Audio1StreamID=[0x1]
    Audio1SampleRate=48000
    Audio1Codec=mp3
    Audio1BitRate=32
    Audio1Channels=2
    =================== AV Details ===================

    AVI2MPG: 6264kbs Full-D1
    14:05:34: Looking for AVI PAR...
    Pass 1/1: Processing sling.avi
    14:05:35: FFmpeg version CVS, Copyright (c) 2000-2004 Fabrice Bellard

    14:05:35: configuration: --enable-a52 --enable-gpl --enable-memalign-hack --disable-debug --enable-pthreads

    14:05:35: libavutil version: 49.0.0

    14:05:35: libavcodec version: 51.4.0

    14:05:35: libavformat version: 50.2.1

    14:05:35: built on Mar 14 2006 17:24:07, gcc: 3.4.4 (mingw special)

    14:05:35: Input #0, avi, from 'C:\avimux\sling.avi':

    14:05:35: Duration: 01:30:04.0, start: 0.000000, bitrate: 1082 kb/s

    14:05:35: Stream #0.0, 23.98 fps(r): Video: mpeg4, yuv420p, 624x352

    14:05:35: Stream #0.1: Audio: mp3, 48000 Hz, stereo, 32 kb/s

    14:05:35: Output #0, dvd, to 'C:\avimux\sling_S2D.mpg':

    14:05:35: Stream #0.0, 23.98 fps(c): Video: mpeg2video (hq), yuv420p, 720x480, q=1-31, 6264 kb/s

    14:05:35: Stream #0.1: Audio: ac3, 48000 Hz, stereo, 448 kb/s

    14:05:35: Stream mapping:

    14:05:35: Stream #0.0 -> #0.0

    14:05:35: Stream #0.1 -> #0.1

    14:48:10: video:3131730kB audio:295528kB global headers:0kB muxing overhead 1.886308%

    14:48:10: AVI2MPG: done.
    NTSC(Film)->NTSC: demuxing sling_S2D.mpg
    14:48:11: FFmpeg version CVS, Copyright (c) 2000-2004 Fabrice Bellard

    14:48:11: configuration: --enable-a52 --enable-gpl --enable-memalign-hack --disable-debug --enable-pthreads

    14:48:11: libavutil version: 49.0.0

    14:48:11: libavcodec version: 51.4.0

    14:48:11: libavformat version: 50.2.1

    14:48:11: built on Mar 14 2006 17:24:07, gcc: 3.4.4 (mingw special)

    14:48:11: Input #0, mpeg, from 'C:\avimux\sling_S2DNTSC(Film).mpg':

    14:48:11: Duration: 01:30:01.6, start: 0.500000, bitrate: 5295 kb/s

    14:48:11: Stream #0.0[0x1e0], 23.98 fps(r): Video: mpeg2video, yuv420p, 720x480, 9000 kb/s

    14:48:11: Stream #0.1[0x80]: Audio: ac3, 48000 Hz, stereo, 448 kb/s

    14:48:11: Output #0, rawvideo, to 'C:\avimux\sling_S2DNTSC(Film).mpv':

    14:48:11: Stream #0.0, 23.98 fps(c): Video: mpeg2video, yuv420p, 720x480, q=2-31, 9000 kb/s

    14:48:11: Output #1, ac3, to 'C:\avimux\sling_S2DNTSC(Film).ac3':

    14:48:11: Stream #1.0: Audio: ac3, 48000 Hz, stereo, 448 kb/s

    14:48:11: Stream mapping:

    14:48:11: Stream #0.0 -> #0.0

    14:48:11: Stream #0.1 -> #1.0

    14:52:51: video:3131930kB audio:295528kB global headers:0kB muxing overhead -8.622360%

    14:52:51: NTSC(Film)->NTSC: Applying Pulldown sling_S2DNTSC(Film).mpv
    14:52:51: SVCD2DVD: Convert2NTSC: Converting....

    15:07:11: NTSC(Film)->NTSC: Muxing sling_S2D.mpg
    15:13:34: INFO: [???] mplex version 2.0.0 (2.2.3 $Date: 2004/01/13 20:45:26 $)

    15:13:34: INFO: [???] File C:\avimux\sling_S2DNTSC(Film)_pd.mpv looks like an MPEG Video stream.

    15:13:34: INFO: [???] File C:\avimux\sling_S2DNTSC(Film).ac3 looks like an AC3 Audio stream.

    15:13:34: INFO: [???] Video stream 0: profile 8 selected - ignoring non-standard options!

    15:13:34: INFO: [???] Found 1 audio streams and 1 video streams

    15:13:34: INFO: [???] Selecting dvdauthor DVD output profile

    15:13:34: INFO: [???] Multiplexing video program stream!

    15:13:34: INFO: [???] Scanning for header info: Video stream e0 (C:\avimux\sling_S2DNTSC(Film)_pd.mpv)

    15:13:34: INFO: [???] VIDEO STREAM: e0

    15:13:34: INFO: [???] Frame width : 720

    15:13:34: INFO: [???] Frame height : 480

    15:13:34: INFO: [???] Aspect ratio : 16:9 display

    15:13:34: INFO: [???] Picture rate : 29.970 frames/sec

    15:13:34: INFO: [???] Bit rate : 9000000 bits/sec

    15:13:34: INFO: [???] Vbv buffer size : 229376 bytes

    15:13:34: INFO: [???] CSPF : 0

    15:13:34: INFO: [???] Scanning for header info: AC3 Audio stream 00 (C:\avimux\sling_S2DNTSC(Film).ac3)

    15:13:34: INFO: [???] AC3 frame size = 1792

    15:13:34: INFO: [???] AC3 AUDIO STREAM:

    15:13:34: INFO: [???] Bit rate : 57344 bytes/sec (448 kbit/sec)

    15:13:34: INFO: [???] Frequency : 48000 Hz

    15:13:34: INFO: [???] SYSTEMS/PROGRAM stream:

    15:13:34: INFO: [???] rough-guess multiplexed stream data rate : 9653896

    15:13:34: INFO: [???] target data-rate specified : 10080000

    15:13:34: INFO: [???] Setting specified specified data rate: 10080000

    15:13:34: INFO: [???] Run-in Sectors = 89 Video delay = 13019 Audio delay = 0

    15:13:34: INFO: [???] New sequence commences...

    15:13:34: INFO: [???] Video e0: buf= 0 frame=000000 sector=00000000

    15:13:34: INFO: [???] Audio bd: buf= 0 frame=000000 sector=00000000

    15:13:34: INFO: [???] STREAM e0 completed @ frame 129565.

    15:13:34: INFO: [???] STREAM bd completed @ frame 168872.

    15:13:34: INFO: [???] Multiplex completion at SCR=486344557.

    15:13:34: INFO: [???] Video e0: buf= 10337 frame=129565 sector=01587541

    15:13:34: INFO: [???] Audio bd: buf= 14336 frame=168872 sector=00150110

    15:13:34: INFO: [???] VIDEO_STATISTICS: e0

    15:13:34: INFO: [???] Video Stream length: 3207096399 bytes

    15:13:34: INFO: [???] Sequence headers: 7496

    15:13:34: INFO: [???] Sequence ends : 0

    15:13:34: INFO: [???] No. Pictures : 129566

    15:13:34: INFO: [???] No. Groups : 7496

    15:13:34: INFO: [???] No. I Frames : 7496 avg. size 41267 bytes

    15:13:34: INFO: [???] No. P Frames : 35694 avg. size 29490 bytes

    15:13:34: INFO: [???] No. B Frames : 86377 avg. size 21361 bytes

    15:13:34: INFO: [???] Average bit-rate : 4747200 bits/sec

    15:13:34: INFO: [???] Peak bit-rate : 9583200 bits/sec

    15:13:34: INFO: [???] BUFFERING min 15 Buf max 211361

    15:13:34: INFO: [???] AUDIO_STATISTICS: bd

    15:13:34: INFO: [???] Audio stream length 302620416 bytes.

    15:13:34: INFO: [???] Frames : 168873

    15:13:34: INFO: [???] BUFFERING min 35 Buf max 6755

    15:13:34: INFO: [???] MUX STATUS: no under-runs detected.

    15:13:34: Done: Processing assets for DVD creation
    Authoring DVD Folders
    15:13:34: Creating TitleSet # 1
    15:13:34: SVCD2DVD: DVDfolders

    Generating DVD folders please wait....

    15:13:34: -->: DVDFolders creating VTS

    15:13:34: -->: VTS 01

    15:13:34:
    DVD Folders: Processing C:\avimux\sling_S2D.mpg...

    15:15:52:

    15:17:26:

    15:17:26: Finalising DVD...
    15:17:27: SVCD2DVD: DVDfolders

    Generating DVD folders please wait....

    15:17:27: -->: DVDFolders creating table of contents

    15:17:27: scanning E:\SVCD2DVD_OUTPUT\VIDEO_TS/VTS_01_0.IFO

    15:17:27: Finalising DVD...Done
    15:17:27: Done: Authoring DVD Folders
    Burning DVD folder
    15:17:27: Burning with ImgBurn...
    16:11:00: Burning ISO...Done
    16:11:00: Done: Burning DVD folder
    Quote Quote  
  4. Member
    Join Date
    Nov 2005
    Location
    United Kingdom
    Search Comp PM
    here is a capture from dvd created with 2.1

    Quote Quote  
  5. Member
    Join Date
    Nov 2005
    Location
    United Kingdom
    Search Comp PM
    here is the 2.5 capture

    Quote Quote  
  6. Member
    Join Date
    Nov 2005
    Location
    United Kingdom
    Search Comp PM
    you can see vertical lines through the 2.5 image.
    Quote Quote  
  7. Member
    Join Date
    Nov 2005
    Location
    United Kingdom
    Search Comp PM
    here is the 2.5 log

    ************************************************** ******************
    ************************ SYSTEM INFORMATION ************************
    ************************************************** ******************

    ***************************** SVCD2DVD *****************************

    Name: SVCD2DVD 2.5
    Title: 2.5
    Version: 2.5.2713.16933
    Executable: C:\Program Files\BadgerIT\SVCD2DVD v2.5\%APPNAME%.EXE
    Executable size: 2.58 MB
    Executable size in bytes: 2711552
    Executable CreationTime: 01/01/2000 00:00:00
    Executable LastWriteTime: 01/01/2000 00:00:00
    Executable LastAccessTime: 01/01/2000 00:00:00

    ************************* Operating System *************************

    Operating System: Microsoft Windows XP Professional
    Service Pack: Service Pack 2
    Version : 5.1.2600
    Windows Directory : C:\WINDOWS

    OSLanguage: 1033
    CodeSet: 1252
    CountryCode: 44
    Local: 0809

    Total Physical Memory: 1.99 GB
    Free Physical Memory: 1.36 GB
    Total Virtual Memory: 1.99 GB
    Free Virtual Memory: 1.96 GB

    ***************************** Computer *****************************

    Computer Manufacturer Name: MSI
    Computer Model: MS-7250
    System Type: X86-based PC
    Computer Name: PDS-40466724245
    DomainRole: x2c3419cdc9b8e007
    Number Of Processors: 2
    User Name: PDS-40466724245\pds

    ***************************** Processor ****************************

    Manufacturer: AuthenticAMD
    Processor: AMD Athlon(tm) 64 X2 Dual Core Processor 4600+
    Description: x86 Family 15 Model 75 Stepping 2
    CPU Speed: 2.4GHz
    CPU FSB: 200MHz
    L2 Cache Size: 1.00 KB

    Manufacturer: AuthenticAMD
    Processor: AMD Athlon(tm) 64 X2 Dual Core Processor 4600+
    Description: x86 Family 15 Model 75 Stepping 2
    CPU Speed: 2.399GHz
    CPU FSB: 200MHz
    L2 Cache Size: 1.00 KB

    08:37:02: Logical CPUs: 2
    ***************************** Time Zone ****************************

    Time Zone: (GMT) Greenwich Mean Time : Dublin, Edinburgh, Lisbon, London

    ****************************** VIDEO *******************************

    Name: NVIDIA GeForce 6800
    Processor: GeForce 6800
    Mode: 1280 x 1024 x 4294967296 colors
    Video Ram: 128 MB
    Status: OK

    ****************************** Drives *******************************

    DeviceID: C:
    FileSystem: NTFS
    Size: 232 GB
    FreeSpace: 75.3 GB

    DeviceID: E:
    FileSystem: NTFS
    Size: 114 GB
    FreeSpace: 75.3 GB

    DeviceID: G:
    FileSystem: NTFS
    Size: 232 GB
    FreeSpace: 212 GB

    ************************************************** ******************
    ********************* END OF SYSTEM INFORMATION ********************
    ************************************************** ******************

    ************************* ProjectMetaData **************************

    <SVCD2DVD DateTime="11/06/2007 08:37:17" Filename="NONE"><AssetSet><Asset ID="ef8350dd-3811-44e3-b84b-6b72688e9034" Path="C:\avimux" Filename="sling.avi" /></AssetSet><DVDStructure><TitleSet Name="New Movie" PostCmd="" MenuButtonType="0"><MenuButton X1="0" Y1="0" X2="262" Y2="53" FontFamily="Tahoma" FontSize="28" FontStyle="3">Menu Button</MenuButton><Title Name="sling.avi" AssetID="ef8350dd-3811-44e3-b84b-6b72688e9034" MplexOffset="0" /></TitleSet><DVDMenu Normal="-1" Highlight="-65536" Active="-16711681" ShowPlayAllButton="False" DSOffsetWidth="1" DSOffsetHeight="1" DSColor="0" DSOnOff="True" BackgroundImagePath="C:\Program Files\BadgerIT\SVCD2DVD v2.5\default.jpg" AudioPath="" /></DVDStructure><Settings><General InitialAssetFolder="" InitialDVDFolder="E:\" InitialProjectFolder="E:\" InitialMenuBackgroundFolder="" DeleteS2DFiles="False" UseDVDShrink="False" /><Menu AudioEncoding="Custom_ac3" DefaultCustomAudioPath="" DefaultCustomImagePath="" TVStandard="NTSC" FontFamily="Tahoma" FontSize="28" FontStyle="3" PlayAllText="Play All" Loop="True" ShowMenuStandardWarning="True" EncodeVideo2AudioDuration="False" /><Process AudioEncoding="ac3" Chapters="Every 10 mins" SkipMPA48="False" SkipAC3="True" PanSan="False" MergeTitles="False" UsePulldown="True" PAL2NTSC="False" AVI2PASS="False" AVI2HALFD1="FS" NoBframes_FullME="False" UseCustomMatrices="False" IntraMatrix="" NonIntraMatrix="" TVOverscanPixels="0" UseThreads="True" ForceWS="False" SafeMaxBitRate="False" /><Program BINExtraction="vcdxrip" VCDGearFIX="False" FastAudioEncode="True" /><Burning BurningMethod="ImgBurn 2+" ImgBurnPath="C:\Program Files\ImgBurn\ImgBurn.exe" DVDDErase="True" DVDDClose="False" DVDDDontBurn="False" /></Settings></SVCD2DVD>

    ************************* ProjectMetaData **************************
    Processing assets for DVD creation

    =================== AV Details ===================
    File Size: 697 MB
    file=C:\\avimux\\sling.avi
    FormatName=avi
    Num_Frames=129566
    DurationInSecs=5404
    Duration=01:30:04.0
    VideoCodec=mpeg4
    VideoFFSTNum=0
    Width=624
    Height=352
    Standard=NTSC (Film)
    BitRate=1082
    AudioStreamCount=1
    Audio1FFSTNum=1
    Audio1StreamID=[0x1]
    Audio1SampleRate=48000
    Audio1Codec=mp3
    Audio1BitRate=32
    Audio1Channels=2
    =================== AV Details ===================

    AVI2MPG: 6264kbs Full-D1
    08:37:17: Looking for AVI PAR...
    Pass 1/1: Processing sling.avi
    08:37:19: FFmpeg version SVN-r8597, Copyright (c) 2000-2007 Fabrice Bellard, et al.

    08:37:19: configuration: --enable-memalign-hack --disable-debug --enable-pthreads --enable-liba52 --enable-gpl --enable-libdts --enable-libfaad

    08:37:19: libavutil version: 49.4.0

    08:37:19: libavcodec version: 51.40.2

    08:37:19: libavformat version: 51.11.0

    08:37:19: built on Apr 4 2007 18:02:17, gcc: 4.3.0 20061204 (experimental)

    08:37:19: Seems stream 0 codec frame rate differs from container frame rate: 23.98 (65535/2733) -> 23.98 (10000000/417083)

    08:37:19: Input #0, avi, from 'C:\avimux\sling.avi':

    08:37:19: Duration: 01:30:04.0, start: 0.000000, bitrate: 1082 kb/s

    08:37:19: Stream #0.0: Video: mpeg4, yuv420p, 624x352, 23.98 fps(r)

    08:37:19: Stream #0.1: Audio: mp3, 48000 Hz, stereo, 32 kb/s

    08:37:19: Output #0, dvd, to 'C:\avimux\sling_S2D.mpg':

    08:37:19: Stream #0.0: Video: mpeg2video, yuv420p, 720x480, q=1-31, 6264 kb/s, 23.98 fps(c)

    08:37:19: Stream #0.1: Audio: ac3, 48000 Hz, stereo, 448 kb/s

    08:37:19: Stream mapping:

    08:37:19: Stream #0.0 -> #0.0

    08:37:19: Stream #0.1 -> #0.1

    08:37:19: Press [q] to stop encoding

    08:37:19: Compiler did not align stack variables. Libavcodec has been miscompiled

    08:37:19: and may be very slow or crash. This is not a bug in libavcodec,

    08:37:19: but in the compiler. Do not report crashes to FFmpeg developers.

    08:37:19: Compiler did not align stack variables. Libavcodec has been miscompiled

    08:37:19: and may be very slow or crash. This is not a bug in libavcodec,

    08:37:19: but in the compiler. Do not report crashes to FFmpeg developers.

    09:15:04: video:3778160kB audio:295528kB global headers:0kB muxing overhead 2.057598%

    09:15:05: AVI2MPG: done.
    NTSC(Film)->NTSC: demuxing sling_S2D.mpg
    09:15:09: FFmpeg version SVN-r8597, Copyright (c) 2000-2007 Fabrice Bellard, et al.

    09:15:09: configuration: --enable-memalign-hack --disable-debug --enable-pthreads --enable-liba52 --enable-gpl --enable-libdts --enable-libfaad

    09:15:09: libavutil version: 49.4.0

    09:15:09: libavcodec version: 51.40.2

    09:15:09: libavformat version: 51.11.0

    09:15:09: built on Apr 4 2007 18:02:17, gcc: 4.3.0 20061204 (experimental)

    09:15:09: Input #0, mpeg, from 'C:\avimux\sling_S2DNTSC(Film).mpg':

    09:15:09: Duration: 01:30:03.0, start: 0.500000, bitrate: 6303 kb/s

    09:15:09: Stream #0.0[0x1e0]: Video: mpeg2video, yuv420p, 720x480, 9000 kb/s, 23.98 fps(r)

    09:15:09: Stream #0.1[0x80]: Audio: ac3, 48000 Hz, stereo, 448 kb/s

    09:15:09: Output #0, rawvideo, to 'C:\avimux\sling_S2DNTSC(Film).mpv':

    09:15:09: Stream #0.0: Video: mpeg2video, yuv420p, 720x480, q=2-31, 9000 kb/s, 23.98 fps(c)

    09:15:09: Output #1, ac3, to 'C:\avimux\sling_S2DNTSC(Film).ac3':

    09:15:09: Stream #1.0: Audio: ac3, 48000 Hz, stereo, 448 kb/s

    09:15:09: Stream mapping:

    09:15:09: Stream #0.0 -> #0.0

    09:15:09: Stream #0.1 -> #1.0

    09:15:09: Press [q] to stop encoding

    09:20:36: video:3779598kB audio:295528kB global headers:0kB muxing overhead -7.251991%

    09:20:36: NTSC(Film)->NTSC: Applying Pulldown sling_S2DNTSC(Film).mpv
    09:20:36: SVCD2DVD: Convert2NTSC: Converting....

    09:37:19: NTSC(Film)->NTSC: Muxing sling_S2D.mpg
    09:44:27: INFO: [???] mplex version 2.0.0 (2.2.3 $Date: 2004/01/13 20:45:26 $)

    09:44:27: INFO: [???] File C:\avimux\sling_S2DNTSC(Film)_pd.mpv looks like an MPEG Video stream.

    09:44:27: INFO: [???] File C:\avimux\sling_S2DNTSC(Film).ac3 looks like an AC3 Audio stream.

    09:44:27: INFO: [???] Video stream 0: profile 8 selected - ignoring non-standard options!

    09:44:27: INFO: [???] Found 1 audio streams and 1 video streams

    09:44:27: INFO: [???] Selecting dvdauthor DVD output profile

    09:44:27: INFO: [???] Multiplexing video program stream!

    09:44:27: INFO: [???] Scanning for header info: Video stream e0 (C:\avimux\sling_S2DNTSC(Film)_pd.mpv)

    09:44:27: INFO: [???] VIDEO STREAM: e0

    09:44:27: INFO: [???] Frame width : 720

    09:44:27: INFO: [???] Frame height : 480

    09:44:27: INFO: [???] Aspect ratio : 16:9 display

    09:44:27: INFO: [???] Picture rate : 29.970 frames/sec

    09:44:27: INFO: [???] Bit rate : 9000000 bits/sec

    09:44:27: INFO: [???] Vbv buffer size : 229376 bytes

    09:44:27: INFO: [???] CSPF : 0

    09:44:27: INFO: [???] Scanning for header info: AC3 Audio stream 00 (C:\avimux\sling_S2DNTSC(Film).ac3)

    09:44:27: INFO: [???] AC3 frame size = 1792

    09:44:27: INFO: [???] AC3 AUDIO STREAM:

    09:44:27: INFO: [???] Bit rate : 57344 bytes/sec (448 kbit/sec)

    09:44:27: INFO: [???] Frequency : 48000 Hz

    09:44:27: INFO: [???] SYSTEMS/PROGRAM stream:

    09:44:27: INFO: [???] rough-guess multiplexed stream data rate : 9653896

    09:44:27: INFO: [???] target data-rate specified : 10080000

    09:44:27: INFO: [???] Setting specified specified data rate: 10080000

    09:44:27: INFO: [???] Run-in Sectors = 89 Video delay = 13019 Audio delay = 16022

    09:44:27: INFO: [???] New sequence commences...

    09:44:27: INFO: [???] Video e0: buf= 0 frame=000000 sector=00000000

    09:44:27: INFO: [???] Audio bd: buf= 0 frame=000000 sector=00000000

    09:44:27: INFO: [???] STREAM e0 completed @ frame 129565.

    09:44:27: INFO: [???] STREAM bd completed @ frame 168872.

    09:44:27: INFO: [???] Multiplex completion at SCR=486344557.

    09:44:27: INFO: [???] Video e0: buf= 47039 frame=129565 sector=01916726

    09:44:27: INFO: [???] Audio bd: buf= 14336 frame=168872 sector=00150110

    09:44:27: INFO: [???] VIDEO_STATISTICS: e0

    09:44:27: INFO: [???] Video Stream length: 3870308240 bytes

    09:44:27: INFO: [???] Sequence headers: 10798

    09:44:27: INFO: [???] Sequence ends : 0

    09:44:27: INFO: [???] No. Pictures : 129566

    09:44:27: INFO: [???] No. Groups : 10798

    09:44:27: INFO: [???] No. I Frames : 10798 avg. size 45286 bytes

    09:44:27: INFO: [???] No. P Frames : 32392 avg. size 34324 bytes

    09:44:27: INFO: [???] No. B Frames : 86377 avg. size 26273 bytes

    09:44:27: INFO: [???] Average bit-rate : 5729200 bits/sec

    09:44:27: INFO: [???] Peak bit-rate : 9936000 bits/sec

    09:44:27: INFO: [???] BUFFERING min 15 Buf max 176279

    09:44:27: INFO: [???] AUDIO_STATISTICS: bd

    09:44:27: INFO: [???] Audio stream length 302620416 bytes.

    09:44:27: INFO: [???] Frames : 168873

    09:44:27: INFO: [???] BUFFERING min 35 Buf max 6979

    09:44:27: INFO: [???] MUX STATUS: no under-runs detected.

    09:44:27: Done: Processing assets for DVD creation
    Authoring DVD Folders
    09:44:28: Creating TitleSet # 1
    09:44:28: SVCD2DVD: DVDfolders

    Generating DVD folders please wait....

    09:44:28: -->: DVDFolders creating VTS

    09:44:28: -->: VTS 01

    09:44:28:
    DVD Folders: Processing C:\avimux\sling_S2D.mpg...

    09:47:19:

    09:49:50:

    09:49:50: Finalising DVD...
    09:49:50: SVCD2DVD: DVDfolders

    Generating DVD folders please wait....

    09:49:50: -->: DVDFolders creating table of contents

    09:49:50: scanning E:\SVCD2DVD_OUTPUT\VIDEO_TS/VTS_01_0.IFO

    09:49:50: Finalising DVD...Done
    09:49:50: Done: Authoring DVD Folders
    Burning DVD folder
    09:49:50: Burning with ImgBurn...
    12:41:12: Burning ISO...Done
    12:41:12: Done: Burning DVD folder
    Quote Quote  
  8. Member ChrissyBoy's Avatar
    Join Date
    Feb 2003
    Location
    Yorkshire!
    Search Comp PM
    Well to investigate this i will need to try out a few things on the same file. Can you email me and i will send you some ftp details for you to upload the file to?
    SVCD2DVD v2.5, AVI/MPEG/HDTV/AviSynth/h264->DVD, PAL->NTSC conversion.
    VOB2MPG PRO, Extract mpegs from your DVDs - with you in control!
    Quote Quote  
  9. Member
    Join Date
    Nov 2005
    Location
    United Kingdom
    Search Comp PM
    emsil sent
    Quote Quote  
  10. I had this when testing the beta with some US TV shows. I notice the latest version has latest ffmpeg - was that to improve this issue?
    Quote Quote  
  11. Member
    Join Date
    Nov 2005
    Location
    United Kingdom
    Search Comp PM
    I am still getting the lines with the new build, tried it with a new xvid this morning. 2.1 coverts the file with no lines
    Quote Quote  
  12. I'm left my PC encoding three separate videos from different sources. Did you use 1 or 2 pass?
    Quote Quote  
  13. Member ChrissyBoy's Avatar
    Join Date
    Feb 2003
    Location
    Yorkshire!
    Search Comp PM
    Originally Posted by thekingbeyond
    I am still getting the lines with the new build, tried it with a new xvid this morning. 2.1 coverts the file with no lines
    I have sent you an email as i will focos on this today. Please can you get back to me?
    SVCD2DVD v2.5, AVI/MPEG/HDTV/AviSynth/h264->DVD, PAL->NTSC conversion.
    VOB2MPG PRO, Extract mpegs from your DVDs - with you in control!
    Quote Quote  
  14. Could it be something to do with the installed codecs? ffdshow, xvid etc?
    Quote Quote  
  15. Member ChrissyBoy's Avatar
    Join Date
    Feb 2003
    Location
    Yorkshire!
    Search Comp PM
    Nope SVCD2DVD doesn't use codecs....
    SVCD2DVD v2.5, AVI/MPEG/HDTV/AviSynth/h264->DVD, PAL->NTSC conversion.
    VOB2MPG PRO, Extract mpegs from your DVDs - with you in control!
    Quote Quote  
  16. Member
    Join Date
    Nov 2005
    Location
    United Kingdom
    Search Comp PM
    tried both on this file, lines are there no mater what settings i use. Have tried clean install of os and another pc and a laptop.
    Quote Quote  
  17. Member ChrissyBoy's Avatar
    Join Date
    Feb 2003
    Location
    Yorkshire!
    Search Comp PM
    Originally Posted by thekingbeyond
    tried both on this file, lines are there no mater what settings i use. Have tried clean install of os and another pc and a laptop.
    Indeed - did you get the email?
    SVCD2DVD v2.5, AVI/MPEG/HDTV/AviSynth/h264->DVD, PAL->NTSC conversion.
    VOB2MPG PRO, Extract mpegs from your DVDs - with you in control!
    Quote Quote  
  18. Was it an NTSC or PAL source? Mine were NTSCs. Have run some PAL & NTSC tests today using 1-pass. Would 2-pass make a difference?
    Quote Quote  
  19. Member
    Join Date
    Nov 2005
    Location
    United Kingdom
    Search Comp PM
    got the email and have replied


    i have tried pal and ntsc, I use 1 pass normally
    Quote Quote  
  20. Member ChrissyBoy's Avatar
    Join Date
    Feb 2003
    Location
    Yorkshire!
    Search Comp PM
    Hey guys,

    This issue was not something that I was aware of until you flagged it... (too much time programming - not enough time chilling in front of my TV!) BUT it has been solved now. Thanks for the heads-up and the correspondence offline - which has enabled me to address it.

    Please can you download the latest version and confirm this has gone away?

    CB
    SVCD2DVD v2.5, AVI/MPEG/HDTV/AviSynth/h264->DVD, PAL->NTSC conversion.
    VOB2MPG PRO, Extract mpegs from your DVDs - with you in control!
    Quote Quote  
  21. Member
    Join Date
    Nov 2005
    Location
    United Kingdom
    Search Comp PM
    converted 2 xvids with the new version no lines so far looks like you got it sorted, got about 20 to convert so will post back if I get any problems

    ChrissyBoy thanks for your time on this, one of the reasons I like svcd2dvd is the great support
    Quote Quote  
  22. Is the new version slower? Its currently running at 11fps!
    Quote Quote  
  23. Member ChrissyBoy's Avatar
    Join Date
    Feb 2003
    Location
    Yorkshire!
    Search Comp PM
    It shouldn't be - maybe there is an issue with your source file... Have you tried others?
    SVCD2DVD v2.5, AVI/MPEG/HDTV/AviSynth/h264->DVD, PAL->NTSC conversion.
    VOB2MPG PRO, Extract mpegs from your DVDs - with you in control!
    Quote Quote  
  24. Not yet but will be!
    Quote Quote  
  25. Member ChrissyBoy's Avatar
    Join Date
    Feb 2003
    Location
    Yorkshire!
    Search Comp PM
    The following registry patch will speed it up, if you feel speed is more important than quality...

    speedup.reg
    SVCD2DVD v2.5, AVI/MPEG/HDTV/AviSynth/h264->DVD, PAL->NTSC conversion.
    VOB2MPG PRO, Extract mpegs from your DVDs - with you in control!
    Quote Quote  
  26. Thanks ChrissyBoy but I'd rather stick with higher quality! It does appear to be slower though compared to 2.1 with the same source video? Short of doing a timed test, is there anyway to see the actual fps in 2.1?
    Quote Quote  
  27. Member ChrissyBoy's Avatar
    Join Date
    Feb 2003
    Location
    Yorkshire!
    Search Comp PM
    Well i would certainly try the reg thing.... it will speed up x2 and i can't tell any quality difference...
    SVCD2DVD v2.5, AVI/MPEG/HDTV/AviSynth/h264->DVD, PAL->NTSC conversion.
    VOB2MPG PRO, Extract mpegs from your DVDs - with you in control!
    Quote Quote  
  28. I completed a 1-pass test with the new 2.5 + speed patch and it all looked and worked great! Do you have an un-patch so I can test the quality more between the two?
    Quote Quote  
  29. Member ChrissyBoy's Avatar
    Join Date
    Feb 2003
    Location
    Yorkshire!
    Search Comp PM
    Just delete the FFMPEGDEFAULTS key from HKEY_CURRENT_USER\Software\Badger I.T.\SVCD2DVD 2.5



    and then you will be back to the default.... Apply the reg file and you will be back to the "speed up"...
    SVCD2DVD v2.5, AVI/MPEG/HDTV/AviSynth/h264->DVD, PAL->NTSC conversion.
    VOB2MPG PRO, Extract mpegs from your DVDs - with you in control!
    Quote Quote  



Similar Threads