VideoHelp Forum

Our website is made possible by displaying online advertisements to our visitors.
Please consider supporting us by disabling your ad blocker or buy PlayOn and record Netflix! :)
+ Reply to Thread
Results 1 to 15 of 15
Thread
  1. Program used to work, Formatted Harddrive now I cant sucessfully create a dvd. BElow is the log:

    ************************************************** ******************
    ************************ SYSTEM INFORMATION ************************
    ************************************************** ******************

    ***************************** SVCD2DVD *****************************

    Name: SVCD2DVD 2.1
    Title: 2.1
    Version: 2.1.2474.30185
    Executable: C:\Program Files\BadgerIT\SVCD2DVD v2\SVCD2DVD.exe
    Executable size: 2.86 MB
    Executable size in bytes: 3006547
    Executable CreationTime: 10/10/2006 10:57:38 PM
    Executable LastWriteTime: 1/3/2007 10:37:42 PM
    Executable LastAccessTime: 1/16/2007 4:06:41 AM

    ************************* Operating System *************************

    Operating System: Microsoft Windows XP Professional
    Service Pack: Service Pack 2
    Version : 5.1.2600
    Windows Directory : C:\WINDOWS

    OSLanguage: 1033
    CodeSet: 1252
    CountryCode: 1
    Local: 0409

    Total Physical Memory: 0.99 GB
    Free Physical Memory: 380 MB
    Total Virtual Memory: 1.99 GB
    Free Virtual Memory: 1.95 GB

    ***************************** Computer *****************************

    Computer Manufacturer Name: INTELR
    Computer Model: AWRDACPI
    System Type: X86-based PC
    Computer Name: NICK-7CA67E325C
    DomainRole: x2c3419cdc9b8e007
    Number Of Processors: 2
    User Name: NICK-7CA67E325C\Nick

    ***************************** Processor ****************************

    Manufacturer: GenuineIntel
    Processor: Intel(R) Pentium(R) D CPU 2.66GHz
    Description: x86 Family 15 Model 4 Stepping 7
    CPU Speed: 3.489GHz
    CPU FSB: 174MHz
    L2 Cache Size: 0 bytes

    Manufacturer: GenuineIntel
    Processor: Intel(R) Pentium(R) D CPU 2.66GHz
    Description: x86 Family 15 Model 4 Stepping 7
    CPU Speed: 3.489GHz
    CPU FSB: 174MHz
    L2 Cache Size: 0 bytes

    23:07:00: Logical CPUs: 2
    ***************************** Time Zone ****************************

    Time Zone: (GMT-05:00) Eastern Time (US & Canada)

    ****************************** VIDEO *******************************

    Name: Sapphire RADEON X1600 PRO
    Processor: Radeon X1600 Series (0x71C2)
    Mode: 1280 x 1024 x 4294967296 colors
    Video Ram: 256 MB
    Status: OK

    Name: Sapphire RADEON X1600 PRO Secondary
    Processor: Radeon X1600 Series Secondary (0x71E2)
    Mode: 1024 x 768 x 4294967296 colors
    Video Ram: 256 MB
    Status: OK

    ****************************** Drives *******************************

    DeviceID: C:
    FileSystem: NTFS
    Size: 114 GB
    FreeSpace: 77.7 GB

    DeviceID: D:
    FileSystem: NTFS
    Size: 34.1 GB
    FreeSpace: 31.7 GB

    DeviceID: E:
    FileSystem: NTFS
    Size: 74.4 GB
    FreeSpace: 14.4 GB

    ************************************************** ******************
    ********************* END OF SYSTEM INFORMATION ********************
    ************************************************** ******************

    ************************* ProjectMetaData **************************

    <SVCD2DVD DateTime="1/15/2007 11:07:32 PM" Filename="NONE"><AssetSet><Asset ID="6c952268-d335-40e3-9e12-b8ea3f6b60da" Path="C:\" Filename="kyr-ufc66a.avi" /></AssetSet><DVDStructure><TitleSet Name="New Movie" PostCmd="" MenuButtonType="0"><MenuButton X1="0" Y1="0" X2="262" Y2="49" FontFamily="Tahoma" FontSize="28" FontStyle="3">Menu Button</MenuButton><Title Name="kyr-ufc66a.avi" AssetID="6c952268-d335-40e3-9e12-b8ea3f6b60da" MplexOffset="0" /></TitleSet><DVDMenu Normal="-1" Highlight="-65536" Active="-16711681" ShowPlayAllButton="False" DSOffsetWidth="1" DSOffsetHeight="1" DSColor="0" DSOnOff="True" BackgroundImagePath="C:\Program Files\BadgerIT\SVCD2DVD v2\default.jpg" AudioPath="" /></DVDStructure><Settings><General InitialAssetFolder="" InitialDVDFolder="" InitialProjectFolder="" InitialMenuBackgroundFolder="" DeleteS2DFiles="False" UseDVDShrink="False" /><Menu AudioEncoding="Custom_mpa" DefaultCustomAudioPath="" DefaultCustomImagePath="" TVStandard="NTSC" FontFamily="Tahoma" FontSize="28" FontStyle="3" PlayAllText="Play All" Loop="True" ShowMenuStandardWarning="True" EncodeVideo2AudioDuration="False" /><Process AudioEncoding="mpa" Chapters="Every 10 mins" SkipMPA48="False" SkipAC3="True" PanSan="False" MergeTitles="False" UsePulldown="True" PAL2NTSC="False" AVI2PASS="False" AVI2HALFD1="FS" NoBframes_FullME="False" UseCustomMatrices="False" IntraMatrix="" NonIntraMatrix="" TVOverscanPixels="0" UseThreads="True" ForceWS="False" SafeMaxBitRate="False" /><Program BINExtraction="vcdxrip" VCDGearFIX="False" FastAudioEncode="True" /><Burning BurningMethod="NeroBurner" DVDDrive="LITE-ON DVDRW SHW-160P6S" NeroWriteSpeed="Max" Eject="True" HighDVDCompat="True" VerifyDVD="False" ImgBurnPath="" DVDDErase="True" DVDDClose="False" DVDDDontBurn="False" /></Settings></SVCD2DVD>

    ************************* ProjectMetaData **************************
    Processing assets for DVD creation

    =================== AV Details ===================
    File Size: 689 MB
    file=C:\kyr-ufc66a.avi
    FormatName=avi
    Num_Frames=148348
    DurationInSecs=4948
    Duration=01:22:28.3
    VideoCodec=mpeg4
    Width=512
    Height=384
    Standard=NTSC
    BitRate=1168
    AudioStreamCount=1
    Audio1StreamID=[0x1]
    Audio1SampleRate=48000
    Audio1Codec=mp3
    Audio1BitRate=128
    Audio1Channels=2
    =================== AV Details ===================

    AVI2MPG: 7112kbs Full-D1
    23:07:32: Looking for AVI PAR...
    Pass 1/1: Processing kyr-ufc66a.avi
    23:07:33: FFmpeg version CVS, Copyright (c) 2000-2004 Fabrice Bellard

    23:07:33: configuration: --enable-a52 --enable-gpl --enable-memalign-hack --disable-debug --enable-pthreads

    23:07:33: libavutil version: 49.0.0

    23:07:33: libavcodec version: 51.4.0

    23:07:33: libavformat version: 50.2.1

    23:07:33: built on Mar 14 2006 17:24:07, gcc: 3.4.4 (mingw special)

    23:07:33: Input #0, avi, from 'C:\kyr-ufc66a.avi':

    23:07:33: Duration: 01:22:28.3, start: 0.000000, bitrate: 1168 kb/s

    23:07:33: Stream #0.0, 29.98 fps(r): Video: mpeg4, yuv420p, 512x384

    23:07:33: Stream #0.1: Audio: mp3, 48000 Hz, stereo, 128 kb/s

    23:07:33: Output #0, dvd, to 'C:\kyr-ufc66a_S2D.mpg':

    23:07:33: Stream #0.0, 29.97 fps(c): Video: mpeg2video (hq), yuv420p, 720x480, q=1-31, 7112 kb/s

    23:07:33: Stream #0.1: Audio: mp2, 48000 Hz, stereo, 224 kb/s

    23:07:33: Stream mapping:

    23:07:33: Stream #0.0 -> #0.0

    23:07:33: Stream #0.1 -> #0.1

    23:16:08: AVI2MPG: done.
    23:16:08: Done: Processing assets for DVD creation
    Authoring DVD Folders
    23:16:08: Creating TitleSet # 1
    23:16:08: SVCD2DVD: DVDfolders

    Generating DVD folders please wait....

    23:16:08: -->: DVDFolders creating VTS

    23:16:08: -->: VTS 01

    23:16:08:
    DVD Folders: Processing C:\kyr-ufc66a_S2D.mpg...
    Quote Quote  
  2. Do you get any error message?
    Dwight

    "A positive attitude may not solve all your problems, but it will annoy enough people to make it worth the effort."
    - Herm Albright

    www.martialconcepts.com
    Quote Quote  
  3. Member ChrissyBoy's Avatar
    Join Date
    Feb 2003
    Location
    Yorkshire!
    Search Comp PM
    Is it just that file or all files?

    Processor: Intel(R) Pentium(R) D CPU 2.66GHz
    Description: x86 Family 15 Model 4 Stepping 7
    CPU Speed: 3.489GHz
    Is your PC overclocked?
    SVCD2DVD v2.5, AVI/MPEG/HDTV/AviSynth/h264->DVD, PAL->NTSC conversion.
    VOB2MPG PRO, Extract mpegs from your DVDs - with you in control!
    Quote Quote  
  4. Just says somethign along the lines of ffmpeg.exe had caused an error. Yes its overclocked, I know what your getting at have reset the speeds to stock and am trying again.
    Quote Quote  
  5. Returned clock speeds back to stock and it hasnt crashed yet, Although this isnt really an acceptable fix... I guess ill see how far i can go and keep ffmpeg stable.
    Quote Quote  
  6. Member ChrissyBoy's Avatar
    Join Date
    Feb 2003
    Location
    Yorkshire!
    Search Comp PM
    The bottom line is that ffmpeg runs @ 100% CPU (or at leat it should do).... So a lot of CPU heat is generated. It is the same for any video encoding. Video encoding is an extreamly CPU intensive process.... see: SVCD2DVD Used as the application to stress test overclocked/super cooled PCs...

    If you are overclocking make sure that you have the right cooling for video encoding!
    SVCD2DVD v2.5, AVI/MPEG/HDTV/AviSynth/h264->DVD, PAL->NTSC conversion.
    VOB2MPG PRO, Extract mpegs from your DVDs - with you in control!
    Quote Quote  
  7. Yea I figured it was temp related thank you very much for your help. I guess this stock cooler has met its match
    Quote Quote  
  8. Member
    Join Date
    Jan 2007
    Location
    United Kingdom
    Search Comp PM
    I have exactly the same problem, since reformatting & re-installing FFMPEg crashes. how do I obtain a log to post?
    Quote Quote  
  9. Have you tried the "logs" folder under where you installed the program?
    Dwight

    "A positive attitude may not solve all your problems, but it will annoy enough people to make it worth the effort."
    - Herm Albright

    www.martialconcepts.com
    Quote Quote  
  10. Member
    Join Date
    Jan 2007
    Location
    United Kingdom
    Search Comp PM
    Originally Posted by Jikchung
    Have you tried the "logs" folder under where you installed the program?
    Have Now thanks

    I successfully converted this film yesterday, then found it was out of sync, so I corrected that and re-ran it again, and it crashed during the second AVI. It was my usual errors message FFmpeg has caused an error. that I get most days.

    I'm not overclocked at all, as was the OP. so if anyone can help I'm grateful

    ************************************************** ******************
    ************************ SYSTEM INFORMATION ************************
    ************************************************** ******************

    ***************************** SVCD2DVD *****************************

    Name: SVCD2DVD 2.1
    Title: 2.1
    Version: 2.1.2474.30185
    Executable: C:\Program Files\BadgerIT\SVCD2DVD v2\SVCD2DVD.exe
    Executable size: 2.86 MB
    Executable size in bytes: 3006547
    Executable CreationTime: 10/10/2006 17:57:38
    Executable LastWriteTime: 25/01/2007 21:47:42
    Executable LastAccessTime: 26/01/2007 06:19:22

    ************************* Operating System *************************

    Operating System: Microsoft Windows XP Professional
    Service Pack: Service Pack 2
    Version : 5.1.2600
    Windows Directory : C:\WINDOWS

    OSLanguage: 1033
    CodeSet: 1252
    CountryCode: 44
    Local: 0809

    Total Physical Memory: 0.99 GB
    Free Physical Memory: 682 MB
    Total Virtual Memory: 1.99 GB
    Free Virtual Memory: 1.96 GB

    ***************************** Computer *****************************

    Computer Manufacturer Name: Shuttle Inc
    Computer Model: SK43V10
    System Type: X86-based PC
    Computer Name: ADMIN-35BA05D34
    DomainRole: x2c3419cdc9b8e007
    Number Of Processors: 1
    User Name: ADMIN-35BA05D34\Administrator

    ***************************** Processor ****************************

    Manufacturer: AuthenticAMD
    Processor: AMD Athlon(tm) XP 3000+
    Description: x86 Family 6 Model 10 Stepping 0
    CPU Speed: 2.158GHz
    CPU FSB: 166MHz
    L2 Cache Size: 512 bytes

    ***************************** Time Zone ****************************

    Time Zone: (GMT) Greenwich Mean Time : Dublin, Edinburgh, Lisbon, London

    ****************************** VIDEO *******************************

    Name: RADEON 9250
    Processor: ATI display adapter AGP (0x5960)
    Mode: 1280 x 1024 x 4294967296 colors
    Video Ram: 256 MB
    Status: OK

    Name: RADEON 9250 - Secondary
    Processor: ATI display adapter AGP (0x5960)
    Mode:
    Video Ram: 256 MB
    Status: OK

    ****************************** Drives *******************************

    DeviceID: C:
    FileSystem: NTFS
    Size: 29.2 GB
    FreeSpace: 22.9 GB

    DeviceID: D:
    FileSystem: NTFS
    Size: 195 GB
    FreeSpace: 65.0 GB

    DeviceID: E:
    FileSystem: NTFS
    Size: 8.28 GB
    FreeSpace: 5.53 GB

    ************************************************** ******************
    ********************* END OF SYSTEM INFORMATION ********************
    ************************************************** ******************

    ************************* ProjectMetaData **************************

    <SVCD2DVD DateTime="26/01/2007 06:19:35" Filename="NONE"><AssetSet><Asset ID="a3f10c53-98f0-43e7-9d57-95a3b2f563ef" Path="D:\Temp 4" Filename="mvs-prestige-cd1a.avi" /><Asset ID="525cc9e0-e5a6-4f28-af8f-0349f23090e0" Path="D:\Temp 4" Filename="mvs-prestige-cd2a.avi" /></AssetSet><DVDStructure><TitleSet Name="New Movie" PostCmd="" MenuButtonType="0"><MenuButton X1="0" Y1="0" X2="262" Y2="49" FontFamily="Tahoma" FontSize="28" FontStyle="3">Menu Button</MenuButton><Title Name="mvs-prestige-cd1a.avi" AssetID="a3f10c53-98f0-43e7-9d57-95a3b2f563ef" MplexOffset="0" /><Title Name="mvs-prestige-cd2a.avi" AssetID="525cc9e0-e5a6-4f28-af8f-0349f23090e0" MplexOffset="0" /></TitleSet><DVDMenu Normal="-1" Highlight="-65536" Active="-16711681" ShowPlayAllButton="False" DSOffsetWidth="1" DSOffsetHeight="1" DSColor="0" DSOnOff="True" BackgroundImagePath="C:\Program Files\BadgerIT\SVCD2DVD v2\default.jpg" AudioPath="" /></DVDStructure><Settings><General InitialAssetFolder="" InitialDVDFolder="" InitialProjectFolder="" InitialMenuBackgroundFolder="" DeleteS2DFiles="False" UseDVDShrink="False" /><Menu AudioEncoding="Custom_mpa" DefaultCustomAudioPath="" DefaultCustomImagePath="" TVStandard="NTSC" FontFamily="Tahoma" FontSize="28" FontStyle="3" PlayAllText="Play All" Loop="True" ShowMenuStandardWarning="True" EncodeVideo2AudioDuration="False" /><Process AudioEncoding="mpa" Chapters="Every 10 mins" SkipMPA48="False" SkipAC3="True" PanSan="False" MergeTitles="False" UsePulldown="True" PAL2NTSC="False" AVI2PASS="False" AVI2HALFD1="FS" NoBframes_FullME="False" UseCustomMatrices="False" IntraMatrix="" NonIntraMatrix="" TVOverscanPixels="0" UseThreads="True" ForceWS="False" SafeMaxBitRate="False" /><Program BINExtraction="vcdxrip" VCDGearFIX="False" FastAudioEncode="True" /><Burning BurningMethod="NONE" DVDDrive="" NeroWriteSpeed="" Eject="True" HighDVDCompat="True" VerifyDVD="False" ImgBurnPath="" DVDDErase="True" DVDDClose="False" DVDDDontBurn="False" /></Settings></SVCD2DVD>

    ************************* ProjectMetaData **************************
    Processing assets for DVD creation

    =================== AV Details ===================
    File Size: 697 MB
    file=D:\Temp 4\mvs-prestige-cd1a.avi
    FormatName=avi
    Num_Frames=88092
    DurationInSecs=3673
    Duration=01:01:13.7
    VideoCodec=mpeg4
    Width=640
    Height=272
    Standard=NTSC (Film)
    BitRate=1592
    AudioStreamCount=1
    Audio1StreamID=[0x1]
    Audio1SampleRate=48000
    Audio1Codec=ac3
    Audio1BitRate=384
    Audio1Channels=6
    =================== AV Details ===================

    AVI2MPG: 4248kbs Full-D1
    06:19:35: Looking for AVI PAR...
    Leaving source audio alone.
    Pass 1/1: Processing mvs-prestige-cd1a.avi
    06:19:36: FFmpeg version CVS, Copyright (c) 2000-2004 Fabrice Bellard

    06:19:36: configuration: --enable-a52 --enable-gpl --enable-memalign-hack --disable-debug --enable-pthreads

    06:19:36: libavutil version: 49.0.0

    06:19:36: libavcodec version: 51.4.0

    06:19:36: libavformat version: 50.2.1

    06:19:36: built on Mar 14 2006 17:24:07, gcc: 3.4.4 (mingw special)

    06:19:36: Input #0, avi, from 'D:\Temp 4\mvs-prestige-cd1a.avi':

    06:19:36: Duration: 01:01:13.7, start: 0.000000, bitrate: 1592 kb/s

    06:19:36: Stream #0.0, 23.98 fps(r): Video: mpeg4, yuv420p, 640x272

    06:19:36: Stream #0.1: Audio: ac3, 48000 Hz, 5:1, 384 kb/s

    06:19:36: Output #0, dvd, to 'D:\Temp 4\mvs-prestige-cd1a_S2D.mpg':

    06:19:36: Stream #0.0, 23.98 fps(c): Video: mpeg2video (hq), yuv420p, 720x480, q=1-31, 4248 kb/s

    06:19:36: Stream #0.1: Audio: ac3, 48000 Hz, 5:1, 384 kb/s

    06:19:36: Stream mapping:

    06:19:36: Stream #0.0 -> #0.0

    06:19:36: Stream #0.1 -> #0.1

    07:06:49: video:1903953kB audio:172206kB global headers:0kB muxing overhead 1.964655%

    07:06:49: AVI2MPG: done.
    NTSC(Film)->NTSC: demuxing mvs-prestige-cd1a_S2D.mpg
    07:06:51: FFmpeg version CVS, Copyright (c) 2000-2004 Fabrice Bellard

    07:06:51: configuration: --enable-a52 --enable-gpl --enable-memalign-hack --disable-debug --enable-pthreads

    07:06:51: libavutil version: 49.0.0

    07:06:51: libavcodec version: 51.4.0

    07:06:51: libavformat version: 50.2.1

    07:06:51: built on Mar 14 2006 17:24:07, gcc: 3.4.4 (mingw special)

    07:06:51: Input #0, mpeg, from 'D:\Temp 4\mvs-prestige-cd1a_S2DNTSC(Film).mpg':

    07:06:51: Duration: 01:01:13.2, start: 0.500000, bitrate: 4721 kb/s

    07:06:51: Stream #0.0[0x1e0], 23.98 fps(r): Video: mpeg2video, yuv420p, 720x480, 9000 kb/s

    07:06:51: Stream #0.1[0x80]: Audio: ac3, 48000 Hz, 5:1, 384 kb/s

    07:06:51: Output #0, rawvideo, to 'D:\Temp 4\mvs-prestige-cd1a_S2DNTSC(Film).mpv':

    07:06:51: Stream #0.0, 23.98 fps(c): Video: mpeg2video, yuv420p, 720x480, q=2-31, 9000 kb/s

    07:06:51: Output #1, ac3, to 'D:\Temp 4\mvs-prestige-cd1a_S2DNTSC(Film).ac3':

    07:06:51: Stream #1.0: Audio: ac3, 48000 Hz, 5:1, 384 kb/s

    07:06:51: Stream mapping:

    07:06:51: Stream #0.0 -> #0.0

    07:06:51: Stream #0.1 -> #1.0

    07:10:24: video:1904051kB audio:172206kB global headers:0kB muxing overhead -8.294059%

    07:10:24: NTSC(Film)->NTSC: Applying Pulldown mvs-prestige-cd1a_S2DNTSC(Film).mpv
    07:10:24: SVCD2DVD: Convert2NTSC: Converting....

    07:19:03: NTSC(Film)->NTSC: Muxing mvs-prestige-cd1a_S2D.mpg
    07:23:29: INFO: [???] mplex version 2.0.0 (2.2.3 $Date: 2004/01/13 20:45:26 $)

    07:23:29: INFO: [???] File D:\Temp 4\mvs-prestige-cd1a_S2DNTSC(Film)_pd.mpv looks like an MPEG Video stream.

    07:23:29: INFO: [???] File D:\Temp 4\mvs-prestige-cd1a_S2DNTSC(Film).ac3 looks like an AC3 Audio stream.

    07:23:29: INFO: [???] Video stream 0: profile 8 selected - ignoring non-standard options!

    07:23:29: INFO: [???] Found 1 audio streams and 1 video streams

    07:23:29: INFO: [???] Selecting dvdauthor DVD output profile

    07:23:29: INFO: [???] Multiplexing video program stream!

    07:23:29: INFO: [???] Scanning for header info: Video stream e0 (D:\Temp 4\mvs-prestige-cd1a_S2DNTSC(Film)_pd.mpv)

    07:23:29: INFO: [???] VIDEO STREAM: e0

    07:23:29: INFO: [???] Frame width : 720

    07:23:29: INFO: [???] Frame height : 480

    07:23:29: INFO: [???] Aspect ratio : 16:9 display

    07:23:29: INFO: [???] Picture rate : 29.970 frames/sec

    07:23:29: INFO: [???] Bit rate : 9000000 bits/sec

    07:23:29: INFO: [???] Vbv buffer size : 229376 bytes

    07:23:29: INFO: [???] CSPF : 0

    07:23:29: INFO: [???] Scanning for header info: AC3 Audio stream 00 (D:\Temp 4\mvs-prestige-cd1a_S2DNTSC(Film).ac3)

    07:23:29: INFO: [???] AC3 frame size = 1536

    07:23:29: INFO: [???] AC3 AUDIO STREAM:

    07:23:29: INFO: [???] Bit rate : 49152 bytes/sec (384 kbit/sec)

    07:23:29: INFO: [???] Frequency : 48000 Hz

    07:23:29: INFO: [???] SYSTEMS/PROGRAM stream:

    07:23:29: INFO: [???] rough-guess multiplexed stream data rate : 9587000

    07:23:29: INFO: [???] target data-rate specified : 10080000

    07:23:29: INFO: [???] Setting specified specified data rate: 10080000

    07:23:29: INFO: [???] Run-in Sectors = 89 Video delay = 13019 Audio delay = 0

    07:23:29: INFO: [???] New sequence commences...

    07:23:29: INFO: [???] Video e0: buf= 0 frame=000000 sector=00000000

    07:23:29: INFO: [???] Audio bd: buf= 0 frame=000000 sector=00000000

    07:23:29: INFO: [???] STREAM e0 completed @ frame 88079.

    07:23:29: INFO: [???] STREAM bd completed @ frame 114803.

    07:23:29: INFO: [???] Multiplex completion at SCR=330620050.

    07:23:29: INFO: [???] Video e0: buf= 160317 frame=088079 sector=00965354

    07:23:29: INFO: [???] Audio bd: buf= 15360 frame=114803 sector=00087470

    07:23:29: INFO: [???] VIDEO_STATISTICS: e0

    07:23:29: INFO: [???] Video Stream length: 1949748373 bytes

    07:23:29: INFO: [???] Sequence headers: 4915

    07:23:29: INFO: [???] Sequence ends : 0

    07:23:29: INFO: [???] No. Pictures : 88080

    07:23:29: INFO: [???] No. Groups : 4915

    07:23:29: INFO: [???] No. I Frames : 4915 avg. size 41119 bytes

    07:23:29: INFO: [???] No. P Frames : 24447 avg. size 29818 bytes

    07:23:29: INFO: [???] No. B Frames : 58719 avg. size 17347 bytes

    07:23:29: INFO: [???] Average bit-rate : 4245600 bits/sec

    07:23:29: INFO: [???] Peak bit-rate : 9414800 bits/sec

    07:23:29: INFO: [???] BUFFERING min 15 Buf max 211535

    07:23:29: INFO: [???] AUDIO_STATISTICS: bd

    07:23:29: INFO: [???] Audio stream length 176338944 bytes.

    07:23:29: INFO: [???] Frames : 114804

    07:23:29: INFO: [???] BUFFERING min 67 Buf max 9379

    07:23:29: INFO: [???] MUX STATUS: no under-runs detected.


    =================== AV Details ===================
    File Size: 694 MB
    file=D:\Temp 4\mvs-prestige-cd2a.avi
    FormatName=avi
    Num_Frames=99652
    DurationInSecs=4155
    Duration=01:09:15.8
    VideoCodec=mpeg4
    Width=640
    Height=272
    Standard=NTSC (Film)
    BitRate=1402
    AudioStreamCount=1
    Audio1StreamID=[0x1]
    Audio1SampleRate=48000
    Audio1Codec=ac3
    Audio1BitRate=384
    Audio1Channels=6
    =================== AV Details ===================

    AVI2MPG: 4248kbs Full-D1
    07:23:29: Looking for AVI PAR...
    Leaving source audio alone.
    Pass 1/1: Processing mvs-prestige-cd2a.avi
    07:23:31: FFmpeg version CVS, Copyright (c) 2000-2004 Fabrice Bellard

    07:23:31: configuration: --enable-a52 --enable-gpl --enable-memalign-hack --disable-debug --enable-pthreads

    07:23:31: libavutil version: 49.0.0

    07:23:31: libavcodec version: 51.4.0

    07:23:31: libavformat version: 50.2.1

    07:23:31: built on Mar 14 2006 17:24:07, gcc: 3.4.4 (mingw special)

    07:23:31: Input #0, avi, from 'D:\Temp 4\mvs-prestige-cd2a.avi':

    07:23:31: Duration: 01:09:15.8, start: 0.000000, bitrate: 1402 kb/s

    07:23:31: Stream #0.0, 23.98 fps(r): Video: mpeg4, yuv420p, 640x272

    07:23:31: Stream #0.1: Audio: ac3, 48000 Hz, 5:1, 384 kb/s

    07:23:31: Output #0, dvd, to 'D:\Temp 4\mvs-prestige-cd2a_S2D.mpg':

    07:23:31: Stream #0.0, 23.98 fps(c): Video: mpeg2video (hq), yuv420p, 720x480, q=1-31, 4248 kb/s

    07:23:31: Stream #0.1: Audio: ac3, 48000 Hz, 5:1, 384 kb/s

    07:23:31: Stream mapping:

    07:23:31: Stream #0.0 -> #0.0

    07:23:31: Stream #0.1 -> #0.1

    11:02:47: AVI2MPG: done.
    NTSC(Film)->NTSC: demuxing mvs-prestige-cd2a_S2D.mpg
    11:02:49: FFmpeg version CVS, Copyright (c) 2000-2004 Fabrice Bellard

    11:02:49: configuration: --enable-a52 --enable-gpl --enable-memalign-hack --disable-debug --enable-pthreads

    11:02:49: libavutil version: 49.0.0

    11:02:49: libavcodec version: 51.4.0

    11:02:49: libavformat version: 50.2.1

    11:02:49: built on Mar 14 2006 17:24:07, gcc: 3.4.4 (mingw special)

    11:02:49: Input #0, mpeg, from 'D:\Temp 4\mvs-prestige-cd2a_S2DNTSC(Film).mpg':

    11:02:49: Duration: 00:54:17.2, start: 0.500000, bitrate: 4717 kb/s

    11:02:49: Stream #0.0[0x1e0], 23.98 fps(r): Video: mpeg2video, yuv420p, 720x480, 9000 kb/s

    11:02:49: Stream #0.1[0x80]: Audio: ac3, 48000 Hz, 5:1, 384 kb/s

    11:02:49: Output #0, rawvideo, to 'D:\Temp 4\mvs-prestige-cd2a_S2DNTSC(Film).mpv':

    11:02:49: Stream #0.0, 23.98 fps(c): Video: mpeg2video, yuv420p, 720x480, q=2-31, 9000 kb/s

    11:02:49: Output #1, ac3, to 'D:\Temp 4\mvs-prestige-cd2a_S2DNTSC(Film).ac3':

    11:02:49: Stream #1.0: Audio: ac3, 48000 Hz, 5:1, 384 kb/s

    11:02:49: Stream mapping:

    11:02:49: Stream #0.0 -> #0.0

    11:02:49: Stream #0.1 -> #1.0

    11:05:31: video:1687050kB audio:152673kB global headers:0kB muxing overhead -8.298694%

    11:05:31: NTSC(Film)->NTSC: Applying Pulldown mvs-prestige-cd2a_S2DNTSC(Film).mpv
    11:05:31: SVCD2DVD: Convert2NTSC: Converting....

    13:12:55: NTSC(Film)->NTSC: Muxing mvs-prestige-cd2a_S2D.mpg
    Quote Quote  
  11. Overclocked or not, do you have a way to monitor your CPU temp? Dust will cause overheating in any system if it sets up in the right place.
    Dwight

    "A positive attitude may not solve all your problems, but it will annoy enough people to make it worth the effort."
    - Herm Albright

    www.martialconcepts.com
    Quote Quote  
  12. Member
    Join Date
    Jan 2007
    Location
    United Kingdom
    Search Comp PM
    running at 60c to 63c while processing a movie, so I've stripped it down & vacuumed all the dust off of the processor cooler, its now at around 48 ish so it looks like it could well be heat
    Quote Quote  
  13. Member ChrissyBoy's Avatar
    Join Date
    Feb 2003
    Location
    Yorkshire!
    Search Comp PM
    So it it sorted? Let us know... sounds very similar to a couple of threads from 2 years ago:

    https://www.videohelp.com/forum/viewtopic.php?t=265207&highlight=dust
    https://www.videohelp.com/forum/viewtopic.php?t=284765&highlight=cpu
    SVCD2DVD v2.5, AVI/MPEG/HDTV/AviSynth/h264->DVD, PAL->NTSC conversion.
    VOB2MPG PRO, Extract mpegs from your DVDs - with you in control!
    Quote Quote  
  14. Member
    Join Date
    Jan 2007
    Location
    United Kingdom
    Search Comp PM
    It looks like it has yes, managed to convert 2 films now that crashed previously, so the lower temps have fixed it.
    Quote Quote  
  15. Member
    Join Date
    Jan 2017
    Location
    TEXAS
    Search Comp PM
    I had the same problem recently and thought it was the video gods giving me a streaming binge addict virus.
    I need to update because I am still using Vista on an old HP D6 lappy!
    I used reasoning. Like who did I digitally sleep with recently?
    I had recently had a Mozilla update, Adobe update, some download hack that gave me Chrome again that I failed to advance download and somehow I had to re-add my video downloader add-on.
    I had used a few times the System Restore when bizarre things happened.
    This time I just uninstalled Chrome and then set up the re-install of Mozilla then uninstalled Mozilla and then completed the Mozilla install. When install was complete, Mozilla prompted me that ooo lah lah you just installed me all new can I refresh some more before we hang out? I got all refreshed then re-installed the bad*ss Ad Block Plus (ABP) and my video downloader add ons...

    It got rid of that annoying warning dialog that ffmpeg.exe has stopped box that before hand kept popping up as I x'ed out over and over!
    Quote Quote  



Similar Threads