VideoHelp Forum

Our website is made possible by displaying online advertisements to our visitors. Consider supporting us by disable your adblocker or Try ConvertXtoDVD and convert all your movies to DVD. Free trial ! :)
+ Reply to Thread
Results 1 to 6 of 6
Thread
  1. Hi all,
    recently bought a Divx Player and finally reconverting my music stuff. I stumbled across this problem and still can't get out of here.
    The movie is an ASF file, trying to convert it to an XVID file, but no way.
    I'm posting the log of the operation (as you may see I already activated the audio inverse mapping). What can I try now to convert it? I always get an avi file with the proper audio track but with no video track...

    Thanks in advance

    Encoding started on Thu Dec 9 13:40:38 CET 2004
    ffmpeg version 0.4.9-pre1, build 4731, Copyright (c) 2000-2004 Fabrice Bellard
    configuration: --enable-mp3lame --enable-gpl --disable-vhook --enable-ffplay --disable-ffserver --enable-a52 --enable-xvid --enable-faac --enable-faad --enable-amr_nb --enable-pthreads
    built on Nov 21 2004 19:41:49, gcc: 3.3 20030304 (Apple Computer, Inc. build 1666)
    Input #0, asf, from '/Volumes/Excitable Disk/Movies/Music Videos/everybreath2003civera.asf':
    Duration: 00:05:12.9, start: 0.000410, bitrate: 613 kb/s
    Stream #0.0: Audio: wmav2, 44100 Hz, stereo, 48 kb/s
    Stream #0.1: Video: wmv2, 320x240, 1.00 fps
    Stream #0.2: Video: wmv2, 320x240, 1.00 fps
    Stream #0.3: Video: wmv2, 320x240, 1.00 fps
    Output #0, avi, to '/Volumes/Excitable Disk/Movies/Music Videos/everybreath2003civera.asf.ff.avi':
    Stream #0.0: Video: xvid (hq), 320x240, 1.00 fps, q=2-9, 940 kb/s
    Stream #0.1: Audio: mp3, 48000 Hz, stereo, 128 kb/s
    Stream mapping:
    Stream #0.1 -> #0.0
    Stream #0.0 -> #0.1
    Press [q] to stop encoding
    [asf @ 0x376034]ff asf parser skips: 955 - 3073 o:2518 - 503 112 115 fl:555
    [asf @ 0x376034]ff asf parser skiping 555b
    frame= 0 q=0.0 Lsize= 5196kB time=312.5 bitrate= 136.2kbits/s
    video:0kB audio:4882kB global headers:0kB muxing overhead 6.427251%
    bench: utime=101.640s
    Encoding completed on Thu Dec 9 13:51:07 CET 2004
    Quote Quote  
  2. Try to set framerate to NTSC instead of 1 fps?
    Quote Quote  
  3. Tried setting to PAL and NTSC 29.97 without luck...

    EDIT: Tried now changing from XVID ffmpeg to XVID mencoder and it seems to work. At least the video track is coming through.

    Thanks for your time major
    Quote Quote  
  4. hi major,
    I confirm that did the trick.
    encoding with xvid mencoder created the video track but not the audio track.
    encoding with xvid ffmpeg created the audio track but not the video track.
    what am I supposed to do to join the two? it shouldn't be a mplex I suppose...
    cheers
    Quote Quote  
  5. You can use MUX AS.. AVI.
    Quote Quote  
  6. hi major,
    just saw that option. another step solved, great support!

    cheers
    Quote Quote  



Similar Threads