VideoHelp Forum
+ Reply to Thread
Results 1 to 2 of 2
Thread
  1. Member
    Join Date: Aug 2014
    Location: Romania
    Search Comp PM
    Hello,

    I have a Nikon Coolpix 510, which I love, but I want to edit the video files, and put them together, split, cut, add transitions and export to a movie, without loosing to much of the quality.
    Is there a video editor (similar to Windows Movie Maker) to edit these mov files?
    Thank you.

    The video format is :

    General
    Complete name : C:\Users\User\Desktop\Picture 057.MOV
    Format : MPEG-4
    Format profile : QuickTime
    Codec ID : qt
    File size : 63.3 MiB
    Duration : 27s 947ms
    Overall bit rate : 19.0 Mbps
    Encoded date : UTC 2012-01-01 00:00:00
    Tagged date : UTC 2012-01-01 00:00:00
    NCDT : NCTG

    Video
    ID : 1
    Format : AVC
    Format/Info : Advanced Video Codec
    Format profile : Main@L4.0
    Format settings, CABAC : Yes
    Format settings, ReFrames : 1 frame
    Format settings, GOP : M=1, N=8
    Codec ID : avc1
    Codec ID/Info : Advanced Video Coding
    Duration : 27s 947ms
    Source duration : 27s 961ms
    Bit rate : 18.7 Mbps
    Width : 1 920 pixels
    Height : 1 080 pixels
    Display aspect ratio : 16:9
    Frame rate mode : Constant
    Frame rate : 29.970 fps
    Color space : YUV
    Chroma subsampling : 4:2:0
    Bit depth : 8 bits
    Scan type : Progressive
    Bits/(Pixel*Frame) : 0.301
    Stream size : 62.3 MiB (98%)
    Source stream size : 62.3 MiB (98%)
    Language : English
    Encoded date : UTC 2012-01-01 00:00:00
    Tagged date : UTC 2012-01-01 00:00:00
    Color primaries : BT.709
    Transfer characteristics : BT.709
    Matrix coefficients : BT.601
    mdhd_Duration : 27947

    Audio
    ID : 2
    Format : AAC
    Format/Info : Advanced Audio Codec
    Format profile : LC
    Codec ID : 40
    Duration : 27s 936ms
    Source duration : 27s 947ms
    Bit rate mode : Constant
    Bit rate : 128 Kbps
    Channel(s) : 2 channels
    Channel positions : Front: L R
    Sampling rate : 48.0 KHz
    Compression mode : Lossy
    Stream size : 437 KiB (1%)
    Source stream size : 437 KiB (1%)
    Language : English
    Encoded date : UTC 2012-01-01 00:00:00
    Tagged date : UTC 2012-01-01 00:00:00
    Quote Quote  
  2. I'm a MEGA Super Moderator Baldrick's Avatar
    Join Date: Aug 2000
    Location: Sweden
    Search Comp PM
    Free? You could try VideoPad Video Editor. I have never tried it though...

    You could also try convert the mov to avi with mp4cam2avi and see if you can import the avi in windows movie maker.
    Quote Quote