VideoHelp Forum
+ Reply to Thread
Results 1 to 15 of 15
Thread
  1. Member
    Join Date: Apr 2013
    Location: Italy
    Search PM
    Hi all the cats,

    I have install the lame.ax directshow audio codec but seems to me it's 44.100 khz but I need the 48Khz mode. Can I find a version of lame codec that have 48 khz? thanks

    Name:  LAM.JPG
Views: 144
Size:  171.1 KB
    Attached Images  
    Quote Quote  
  2. Member
    Join Date: Sep 2007
    Location: Canada
    Search Comp PM
    You need to connect the input pin to a 48Khz source, and the 48Khz option will appear
    Quote Quote  
  3. vanished El Heggunte's Avatar
    Join Date: Jun 2009
    Location: Misplaced Childhood
    Search Comp PM
    The DirectShow engine supports the ACM codecs in its graph building, so
    you can wisely replace the lame lame.ax with either LAME ACM or the "professional" MP3 ACM from Fraunhofer.
    Attached Images  
    Quote Quote  
  4. Member
    Join Date: Apr 2013
    Location: Italy
    Search PM
    Originally Posted by poisondeathray View Post
    You need to connect the input pin to a 48Khz source, and the 48Khz option will appear
    in what way? I need of third party programs to do that?
    Quote Quote  
  5. Member
    Join Date: Apr 2013
    Location: Italy
    Search PM
    Originally Posted by El Heggunte View Post
    The DirectShow engine supports the ACM codecs in its graph building, so
    you can wisely replace the lame lame.ax with either LAME ACM or the "professional" MP3 ACM from Fraunhofer.
    I have download it but I don't know what I have to do... I'm a cat
    Quote Quote  
  6. Member
    Join Date: Sep 2007
    Location: Canada
    Search Comp PM
    You directshow chain has to have 48Khz source in order for directshow lame to show the 48Khz option

    You can demonstrate that or construct a directshow graph in graphstudio / graphedit for example
    Quote Quote  
  7. Mod Neophyte Super Moderator redwudz's Avatar
    Join Date: Sep 2002
    Location: AZ, USA
    Search Comp PM
    To install the ACM codec just extract all files and right click on the LameACM.inf and select Install.
    Quote Quote  
  8. Member
    Join Date: Apr 2013
    Location: Italy
    Search PM
    Originally Posted by redwudz View Post
    To install the ACM codec just extract all files and right click on the LameACM.inf and select Install.
    maybe because I'm a cat and I have paws that does not push the right buttons of the keyboard however I have try to download LameACM but seems to me there is not the .inf

    I see only this file in the uncompressed directory:

    Name:  DIR1.jpg
Views: 102
Size:  67.6 KB

    Quote Quote  
  9. vanished El Heggunte's Avatar
    Join Date: Jun 2009
    Location: Misplaced Childhood
    Search Comp PM
    http://www.rarewares.org/mp3-lame-dshow-acm.php

    Code:
    How to install on Win7 x64:
     
    1. Extract it to for example c:\lame
    
    2. Run cmd with admin rights (ctrl+shift+return)
    
    3. cd %windir%\SysWOW64
    
    4. rundll32 setupapi.dll,InstallHinfSection DefaultInstall 0 C:\lame\LameACM.inf
    
    (Thanks to Markus Stein.)
    Quote Quote  
  10. Member
    Join Date: Apr 2013
    Location: Italy
    Search PM
    Originally Posted by poisondeathray View Post
    You need to connect the input pin to a 48Khz source, and the 48Khz option will appear
    poison I have download graphstudio and graphedit but I don't know what I have to do. I can see the lame.ax codec in the codec's list of the DSFMgr but now what I have to do in the graphedit/graphstudio to have the 48KHz able in the codec? thanks

    Click image for larger version

Name:	DSF.jpg
Views:	7
Size:	1.08 MB
ID:	26828
    Quote Quote  
  11. Member
    Join Date: Apr 2013
    Location: Italy
    Search PM
    Maybe I can see the 48 khz option when I do this in graphedit:

    Click image for larger version

Name:	GRAPH.jpg
Views:	7
Size:	70.2 KB
ID:	26830

    but when I go inside the SRFC(Dino)-NLE I cannot see the 48khz option when I try to set the audio encoding option. Or I can install anhother audio encoder but I don't know what encoder

    my target is encode audio @ 48 khz
    Click image for larger version

Name:	LAME3.jpg
Views:	14
Size:	487.5 KB
ID:	26831
    Quote Quote  
  12. Member
    Join Date: Apr 2013
    Location: Italy
    Search PM
    I wonder: is there a way to have 48 khz in the nle?
    Quote Quote  
  13. Member
    Join Date: Apr 2013
    Location: Italy
    Search PM
    maybe my cat have found solution: problem is the BladeFormats.dat of the nle

    it have to be configured so:

    [Uncompressed (YUY2)]
    FieldOrder 1=1
    Can Change ColorSpace=1
    ColorSpace 1=1

    [Morgan Multimedia M-JPEG SD codec]
    FieldOrder 1=1
    Can Change ColorSpace=1
    ColorSpace 1=1

    [x264vfw - H.264/MPEG-4 AVC codec]
    FieldOrder 1=1
    Can Change ColorSpace=1
    ColorSpace 1=1

    [LEAD MCMP/MJPEG Codec (VFW)]
    FieldOrder 1=1
    Can Change ColorSpace=1
    ColorSpace 1=1

    [Morgan M-JPEG codec]
    FieldOrder 1=1
    Can Change ColorSpace=1
    ColorSpace 1=1


    [Uncompressed (UYVY)]
    FieldOrder 1=1
    Can Change ColorSpace=1
    ColorSpace 1=1

    [PICVideo M-JPEG 4 32-bit DirectShow Compressor]
    FieldOrder 1=2
    FieldOrder 2=1
    FieldOrder 3=0
    Can Change ColorSpace=1
    ColorSpace 1=2
    ColorSpace 2=1
    ColorSpace 3=0

    [PICVideo M-JPEG 4 32-bit VfW Codec]
    FieldOrder 1=2
    FieldOrder 2=1
    FieldOrder 3=0
    Can Change ColorSpace=1
    ColorSpace 1=2
    ColorSpace 2=1
    ColorSpace 3=0


    [DV Video Encoder]
    Video Codec=1
    Video Notes=In order to set the output for DV for NTSC or PAL you need to configure this by pressing the Configure codec button and set the output for NTSC or PAL. Media Post only supports exporting in fixed NTSC or PAL output sizes.
    FrameRate 1=29.97
    Can Change FrameRate=1
    FrameRate 2=30
    FrameRate 3=25
    FieldOrder 1=0
    FieldOrder 2=1
    FieldOrder 3=2
    ColorSpace 1=0
    Can Change ColorSpace=0
    ColorSpace 2=-1
    ColorSpace 3=-1
    ColorSpace 4=-1
    Num Resolutions=2
    Has Custom W and H=0
    Has Min W=0
    Has Min H=0
    Has Max W=0
    Has Max H=0
    Min W=-1
    Min H=-1
    Max W=-1
    Max H=-1
    Resolution # 1 width=720
    Resolution # 1 height=480
    Resolution # 1 descr=Full size DV NTSC
    Resolution # 2 width=720
    Resolution # 2 height=576
    Resolution # 2 descr=Full size DV Pal
    [DV Video with interleaved DV Audio]
    Interleaved Type=1
    Video Codec=1
    Video Notes=In order to set the output for DV for NTSC or PAL you need to configure this by pressing the Configure codec button and set the output for NTSC or PAL. Media Post only supports exporting in fixed NTSC or PAL output sizes.
    FrameRate 1=29.97
    Can Change FrameRate=1
    FrameRate 2=30
    FrameRate 3=25
    FieldOrder 1=0
    FieldOrder 2=1
    FieldOrder 3=2
    ColorSpace 1=0
    Can Change ColorSpace=0
    ColorSpace 2=-1
    ColorSpace 3=-1
    ColorSpace 4=-1
    Num Resolutions=2
    Has Custom W and H=0
    Has Min W=0
    Has Min H=0
    Has Max W=0
    Has Max H=0
    Min W=-1
    Min H=-1
    Max W=-1
    Max H=-1
    Resolution # 1 width=720
    Resolution # 1 height=480
    Resolution # 1 descr=DV NTSC
    Resolution # 2 width=720
    Resolution # 2 height=576
    Resolution # 2 descr=DV Pal
    [Mpeg1 & Mpeg2 Codec]
    Interleaved Type=1
    Video Codec=1
    Video Notes=The width and height of MPEG files must be a multiple of 4.
    Can Change ColorSpace=0
    ColorSpace 1=0
    ColorSpace 2=-1
    ColorSpace 3=-1
    ColorSpace 4=-1
    Resolution Changeable=1
    Num Resolutions=6
    Has Custom W and H=1
    Has Min W=0
    Has Min H=0
    Has Max W=0
    Has Max H=0
    Min W=-1
    Min H=-1
    Max W=-1
    Max H=-1
    Resolution # 1 width=720
    Resolution # 1 height=480
    Resolution # 1 descr=DV - NTSC
    Resolution # 2 width=720
    Resolution # 2 height=576
    Resolution # 2 descr=Full size PAL
    Resolution # 3 width=360
    Resolution # 3 height=240
    Resolution # 3 descr=Half size DV - NTSC
    Resolution # 4 width=360
    Resolution # 4 height=288
    Resolution # 4 descr=Half size PAL
    FrameRate 1=29.97
    Can Change FrameRate=1
    FrameRate 2=30
    FrameRate 3=25
    FieldOrder 1=0
    FieldOrder 2=1
    FieldOrder 3=-1

    [Uncompressed (BGR24)]
    Video Codec=1
    FrameRate 1=29.97
    Can Change FrameRate=1
    FrameRate 2=30
    FrameRate 3=25
    FieldOrder 1=1
    FieldOrder 2=0
    FieldOrder 3=2
    Can Change ColorSpace=0
    ColorSpace 1=2
    ColorSpace 2=-1
    ColorSpace 3=-1
    ColorSpace 4=-1
    Resolution Changeable=1
    Num Resolutions=6
    Has Custom W and H=1
    Has Min W=0
    Has Min H=0
    Has Max W=0
    Has Max H=0
    Min W=-1
    Min H=-1
    Max W=-1
    Max H=-1
    Resolution # 1 width=720
    Resolution # 1 height=486
    Resolution # 1 descr=Full size NTSC
    Resolution # 2 width=720
    Resolution # 2 height=480
    Resolution # 2 descr=Full size DV - NTSC
    Resolution # 3 width=720
    Resolution # 3 height=576
    Resolution # 3 descr=Full size PAL
    Resolution # 4 width=360
    Resolution # 4 height=243
    Resolution # 4 descr=Half size NTSC
    Resolution # 5 width=360
    Resolution # 5 height=240
    Resolution # 5 descr=Half size DV - NTSC
    Resolution # 6 width=360
    Resolution # 6 height=288
    Resolution # 6 descr=Half size PAL
    [Uncompressed (BGR32)]
    Video Codec=1
    FrameRate 1=29.97
    Can Change FrameRate=1
    FrameRate 2=30
    FrameRate 3=25
    FieldOrder 1=1
    FieldOrder 2=0
    FieldOrder 3=2
    Can Change ColorSpace=0
    ColorSpace 1=3
    ColorSpace 2=-1
    ColorSpace 3=-1
    ColorSpace 4=-1
    Num Resolutions=6
    Has Custom W and H=1
    Has Min W=0
    Has Min H=0
    Has Max W=0
    Has Max H=0
    Min W=-1
    Min H=-1
    Max W=-1
    Max H=-1
    Resolution # 1 width=720
    Resolution # 1 height=486
    Resolution # 1 descr=Full size NTSC
    Resolution # 2 width=720
    Resolution # 2 height=480
    Resolution # 2 descr=Full size DV - NTSC
    Resolution # 3 width=720
    Resolution # 3 height=576
    Resolution # 3 descr=Full size PAL
    Resolution # 4 width=360
    Resolution # 4 height=243
    Resolution # 4 descr=Half size NTSC
    Resolution # 5 width=360
    Resolution # 5 height=240
    Resolution # 5 descr=Half size DV - NTSC
    Resolution # 6 width=360
    Resolution # 6 height=288
    Resolution # 6 descr=Half size PAL
    [MJPEG Compressor]
    Video Codec=1
    FrameRate 1=29.97
    Can Change FrameRate=1
    FrameRate 2=30
    FrameRate 3=25
    FieldOrder 1=0
    FieldOrder 2=1
    FieldOrder 3=2
    ColorSpace 1=0
    Can Change ColorSpace=1
    ColorSpace 2=1
    ColorSpace 3=2
    ColorSpace 4=3
    Resolution Changeable=1
    Num Resolutions=6
    Has Custom W and H=1
    Has Min W=0
    Has Min H=0
    Has Max W=0
    Has Max H=0
    Min W=-1
    Min H=-1
    Max W=-1
    Max H=-1
    Resolution # 1 width=720
    Resolution # 1 height=486
    Resolution # 1 descr=Full size NTSC
    Resolution # 2 width=720
    Resolution # 2 height=480
    Resolution # 2 descr=Full size DV - NTSC
    Resolution # 3 width=720
    Resolution # 3 height=576
    Resolution # 3 descr=Full size PAL
    Resolution # 4 width=360
    Resolution # 4 height=243
    Resolution # 4 descr=Half size NTSC
    Resolution # 5 width=360
    Resolution # 5 height=240
    Resolution # 5 descr=Half size DV - NTSC
    Resolution # 6 width=360
    Resolution # 6 height=288
    Resolution # 6 descr=Half size PAL
    [WindowsMedia Video (asf,wmv)]
    Interleaved Type=1
    Video Codec=1
    FrameRate 1=29.97
    Can Change FrameRate=1
    FrameRate 2=30
    FrameRate 3=25
    FieldOrder 1=0
    FieldOrder 2=1
    FieldOrder 3=2
    ColorSpace 1=0
    Can Change ColorSpace=1
    ColorSpace 2=1
    ColorSpace 3=2
    ColorSpace 4=3
    Resolution Changeable=1
    Num Resolutions=6
    Has Custom W and H=1
    Has Min W=0
    Has Min H=0
    Has Max W=0
    Has Max H=0
    Min W=-1
    Min H=-1
    Max W=-1
    Max H=-1
    Resolution # 1 width=720
    Resolution # 1 height=486
    Resolution # 1 descr=Full size NTSC
    Resolution # 2 width=720
    Resolution # 2 height=480
    Resolution # 2 descr=Full size DV - NTSC
    Resolution # 3 width=720
    Resolution # 3 height=576
    Resolution # 3 descr=Full size PAL
    Resolution # 4 width=360
    Resolution # 4 height=243
    Resolution # 4 descr=Half size NTSC
    Resolution # 5 width=360
    Resolution # 5 height=240
    Resolution # 5 descr=Half size DV - NTSC
    Resolution # 6 width=360
    Resolution # 6 height=288
    Resolution # 6 descr=Half size PAL
    [WMVideo Encoder DMO]
    Interleaved Type=1
    Remove=1
    Video Codec=1
    FrameRate 1=29.97
    Can Change FrameRate=1
    FrameRate 2=30
    FrameRate 3=25
    FieldOrder 1=0
    FieldOrder 2=1
    FieldOrder 3=2
    ColorSpace 1=0
    Can Change ColorSpace=1
    ColorSpace 2=1
    ColorSpace 3=2
    ColorSpace 4=3
    Resolution Changeable=1
    Num Resolutions=6
    Has Custom W and H=1
    Has Min W=0
    Has Min H=0
    Has Max W=0
    Has Max H=0
    Min W=-1
    Min H=-1
    Max W=-1
    Max H=-1
    Resolution # 1 width=720
    Resolution # 1 height=486
    Resolution # 1 descr=Full size NTSC
    Resolution # 2 width=720
    Resolution # 2 height=480
    Resolution # 2 descr=Full size DV - NTSC
    Resolution # 3 width=720
    Resolution # 3 height=576
    Resolution # 3 descr=Full size PAL
    Resolution # 4 width=360
    Resolution # 4 height=243
    Resolution # 4 descr=Half size NTSC
    Resolution # 5 width=360
    Resolution # 5 height=240
    Resolution # 5 descr=Half size DV - NTSC
    Resolution # 6 width=360
    Resolution # 6 height=288
    Resolution # 6 descr=Half size PAL
    [MSScreen encoder DMO]
    Interleaved Type=1
    Remove=1
    Video Codec=1
    FrameRate 1=29.97
    Can Change FrameRate=1
    FrameRate 2=30
    FrameRate 3=25
    FieldOrder 1=0
    FieldOrder 2=1
    FieldOrder 3=2
    ColorSpace 1=0
    Can Change ColorSpace=1
    ColorSpace 2=1
    ColorSpace 3=2
    ColorSpace 4=3
    Resolution Changeable=1
    Num Resolutions=6
    Has Custom W and H=1
    Has Min W=0
    Has Min H=0
    Has Max W=0
    Has Max H=0
    Min W=-1
    Min H=-1
    Max W=-1
    Max H=-1
    Resolution # 1 width=720
    Resolution # 1 height=486
    Resolution # 1 descr=Full size NTSC
    Resolution # 2 width=720
    Resolution # 2 height=480
    Resolution # 2 descr=Full size DV - NTSC
    Resolution # 3 width=720
    Resolution # 3 height=576
    Resolution # 3 descr=Full size PAL
    Resolution # 4 width=360
    Resolution # 4 height=243
    Resolution # 4 descr=Half size NTSC
    Resolution # 5 width=360
    Resolution # 5 height=240
    Resolution # 5 descr=Half size DV - NTSC
    Resolution # 6 width=360
    Resolution # 6 height=288
    Resolution # 6 descr=Half size PAL
    [WMVideo8 Encoder DMO]
    Interleaved Type=1
    Remove=1
    Video Codec=1
    FrameRate 1=29.97
    Can Change FrameRate=1
    FrameRate 2=30
    FrameRate 3=25
    FieldOrder 1=0
    FieldOrder 2=1
    FieldOrder 3=2
    ColorSpace 1=0
    Can Change ColorSpace=1
    ColorSpace 2=1
    ColorSpace 3=2
    ColorSpace 4=3
    Resolution Changeable=1
    Num Resolutions=6
    Has Custom W and H=1
    Has Min W=0
    Has Min H=0
    Has Max W=0
    Has Max H=0
    Min W=-1
    Min H=-1
    Max W=-1
    Max H=-1
    Resolution # 1 width=720
    Resolution # 1 height=486
    Resolution # 1 descr=Full size NTSC
    Resolution # 2 width=720
    Resolution # 2 height=480
    Resolution # 2 descr=Full size DV - NTSC
    Resolution # 3 width=720
    Resolution # 3 height=576
    Resolution # 3 descr=Full size PAL
    Resolution # 4 width=360
    Resolution # 4 height=243
    Resolution # 4 descr=Half size NTSC
    Resolution # 5 width=360
    Resolution # 5 height=240
    Resolution # 5 descr=Half size DV - NTSC
    Resolution # 6 width=360
    Resolution # 6 height=288
    Resolution # 6 descr=Half size PAL
    [Indeo® video 5.10 Compression Filter]
    Interleaved Type=1
    Video Codec=1
    FrameRate 1=29.97
    Can Change FrameRate=1
    FrameRate 2=30
    FrameRate 3=25
    FieldOrder 1=0
    FieldOrder 2=1
    FieldOrder 3=2
    ColorSpace 1=0
    Can Change ColorSpace=1
    ColorSpace 2=1
    ColorSpace 3=2
    ColorSpace 4=3
    Default ColorSpace=-1
    Resolution Changeable=1
    Num Resolutions=6
    Has Custom W and H=1
    Has Min W=0
    Has Min H=0
    Has Max W=0
    Has Max H=0
    Min W=-1
    Min H=-1
    Max W=-1
    Max H=-1
    Resolution # 1 width=720
    Resolution # 1 height=486
    Resolution # 1 descr=Full size NTSC
    Resolution # 2 width=720
    Resolution # 2 height=480
    Resolution # 2 descr=Full size DV - NTSC
    Resolution # 3 width=720
    Resolution # 3 height=576
    Resolution # 3 descr=Full size PAL
    Resolution # 4 width=360
    Resolution # 4 height=243
    Resolution # 4 descr=Half size NTSC
    Resolution # 5 width=360
    Resolution # 5 height=240
    Resolution # 5 descr=Half size DV - NTSC
    Resolution # 6 width=360
    Resolution # 6 height=288
    Resolution # 6 descr=Half size PAL
    [Cinepak Codec by Radius]
    Interleaved Type=1
    Remove=1
    Video Codec=1
    FrameRate 1=29.97
    Can Change FrameRate=1
    FrameRate 2=30
    FrameRate 3=25
    FieldOrder 1=0
    FieldOrder 2=1
    FieldOrder 3=2
    ColorSpace 1=0
    Can Change ColorSpace=1
    ColorSpace 2=1
    ColorSpace 3=2
    ColorSpace 4=3
    Resolution Changeable=1
    Num Resolutions=6
    Has Custom W and H=1
    Has Min W=0
    Has Min H=0
    Has Max W=0
    Has Max H=0
    Min W=-1
    Min H=-1
    Max W=-1
    Max H=-1
    Resolution # 1 width=720
    Resolution # 1 height=486
    Resolution # 1 descr=Full size NTSC
    Resolution # 2 width=720
    Resolution # 2 height=480
    Resolution # 2 descr=Full size DV - NTSC
    Resolution # 3 width=720
    Resolution # 3 height=576
    Resolution # 3 descr=Full size PAL
    Resolution # 4 width=360
    Resolution # 4 height=243
    Resolution # 4 descr=Half size NTSC
    Resolution # 5 width=360
    Resolution # 5 height=240
    Resolution # 5 descr=Half size DV - NTSC
    Resolution # 6 width=360
    Resolution # 6 height=288
    Resolution # 6 descr=Half size PAL
    [Indeo 4:2:0 Video V2.50]
    Interleaved Type=1
    Remove=1
    Video Codec=1
    FrameRate 1=29.97
    Can Change FrameRate=1
    FrameRate 2=30
    FrameRate 3=25
    FieldOrder 1=0
    FieldOrder 2=1
    FieldOrder 3=2
    ColorSpace 1=0
    Can Change ColorSpace=1
    ColorSpace 2=1
    ColorSpace 3=2
    ColorSpace 4=3
    Resolution Changeable=1
    Num Resolutions=6
    Has Custom W and H=1
    Has Min W=0
    Has Min H=0
    Has Max W=0
    Has Max H=0
    Min W=-1
    Min H=-1
    Max W=-1
    Max H=-1
    Resolution # 1 width=720
    Resolution # 1 height=486
    Resolution # 1 descr=Full size NTSC
    Resolution # 2 width=720
    Resolution # 2 height=480
    Resolution # 2 descr=Full size DV - NTSC
    Resolution # 3 width=720
    Resolution # 3 height=576
    Resolution # 3 descr=Full size PAL
    Resolution # 4 width=360
    Resolution # 4 height=243
    Resolution # 4 descr=Half size NTSC
    Resolution # 5 width=360
    Resolution # 5 height=240
    Resolution # 5 descr=Half size DV - NTSC
    Resolution # 6 width=360
    Resolution # 6 height=288
    Resolution # 6 descr=Half size PAL
    [Intel Indeo(R) Video R3.2]
    Interleaved Type=1
    Remove=1
    Video Codec=1
    FrameRate 1=29.97
    Can Change FrameRate=1
    FrameRate 2=30
    FrameRate 3=25
    FieldOrder 1=0
    FieldOrder 2=1
    FieldOrder 3=2
    ColorSpace 1=0
    Can Change ColorSpace=1
    ColorSpace 2=1
    ColorSpace 3=2
    ColorSpace 4=3
    Resolution Changeable=1
    Num Resolutions=6
    Has Custom W and H=1
    Has Min W=0
    Has Min H=0
    Has Max W=0
    Has Max H=0
    Min W=-1
    Min H=-1
    Max W=-1
    Max H=-1
    Resolution # 1 width=720
    Resolution # 1 height=486
    Resolution # 1 descr=Full size NTSC
    Resolution # 2 width=720
    Resolution # 2 height=480
    Resolution # 2 descr=Full size DV - NTSC
    Resolution # 3 width=720
    Resolution # 3 height=576
    Resolution # 3 descr=Full size PAL
    Resolution # 4 width=360
    Resolution # 4 height=243
    Resolution # 4 descr=Half size NTSC
    Resolution # 5 width=360
    Resolution # 5 height=240
    Resolution # 5 descr=Half size DV - NTSC
    Resolution # 6 width=360
    Resolution # 6 height=288
    Resolution # 6 descr=Half size PAL
    [Indeo® video 5.10]
    Interleaved Type=1
    Video Codec=1
    FrameRate 1=29.97
    Can Change FrameRate=1
    FrameRate 2=30
    FrameRate 3=25
    FieldOrder 1=0
    FieldOrder 2=1
    FieldOrder 3=2
    ColorSpace 1=0
    Can Change ColorSpace=1
    ColorSpace 2=1
    ColorSpace 3=2
    ColorSpace 4=3
    Resolution Changeable=1
    Num Resolutions=6
    Has Custom W and H=1
    Has Min W=0
    Has Min H=0
    Has Max W=0
    Has Max H=0
    Min W=-1
    Min H=-1
    Max W=-1
    Max H=-1
    Resolution # 1 width=720
    Resolution # 1 height=486
    Resolution # 1 descr=Full size NTSC
    Resolution # 2 width=720
    Resolution # 2 height=480
    Resolution # 2 descr=Full size DV - NTSC
    Resolution # 3 width=720
    Resolution # 3 height=576
    Resolution # 3 descr=Full size PAL
    Resolution # 4 width=360
    Resolution # 4 height=243
    Resolution # 4 descr=Half size NTSC
    Resolution # 5 width=360
    Resolution # 5 height=240
    Resolution # 5 descr=Half size DV - NTSC
    Resolution # 6 width=360
    Resolution # 6 height=288
    Resolution # 6 descr=Half size PAL
    [Microsoft H.261 Video Codec]
    Interleaved Type=1
    Remove=1
    Video Codec=1
    FrameRate 1=29.97
    Can Change FrameRate=1
    FrameRate 2=30
    FrameRate 3=25
    FieldOrder 1=0
    FieldOrder 2=1
    FieldOrder 3=2
    ColorSpace 1=0
    Can Change ColorSpace=1
    ColorSpace 2=1
    ColorSpace 3=2
    ColorSpace 4=3
    Resolution Changeable=1
    Num Resolutions=6
    Has Custom W and H=1
    Has Min W=0
    Has Min H=0
    Has Max W=0
    Has Max H=0
    Min W=-1
    Min H=-1
    Max W=-1
    Max H=-1
    Resolution # 1 width=720
    Resolution # 1 height=486
    Resolution # 1 descr=Full size NTSC
    Resolution # 2 width=720
    Resolution # 2 height=480
    Resolution # 2 descr=Full size DV - NTSC
    Resolution # 3 width=720
    Resolution # 3 height=576
    Resolution # 3 descr=Full size PAL
    Resolution # 4 width=360
    Resolution # 4 height=243
    Resolution # 4 descr=Half size NTSC
    Resolution # 5 width=360
    Resolution # 5 height=240
    Resolution # 5 descr=Half size DV - NTSC
    Resolution # 6 width=360
    Resolution # 6 height=288
    Resolution # 6 descr=Half size PAL
    [Microsoft H.263 Video Codec]
    Interleaved Type=1
    Remove=1
    Video Codec=1
    FrameRate 1=29.97
    Can Change FrameRate=1
    FrameRate 2=30
    FrameRate 3=25
    FieldOrder 1=0
    FieldOrder 2=1
    FieldOrder 3=2
    ColorSpace 1=0
    Can Change ColorSpace=1
    ColorSpace 2=1
    ColorSpace 3=2
    ColorSpace 4=3
    Resolution Changeable=1
    Num Resolutions=6
    Has Custom W and H=1
    Has Min W=0
    Has Min H=0
    Has Max W=0
    Has Max H=0
    Min W=-1
    Min H=-1
    Max W=-1
    Max H=-1
    Resolution # 1 width=720
    Resolution # 1 height=486
    Resolution # 1 descr=Full size NTSC
    Resolution # 2 width=720
    Resolution # 2 height=480
    Resolution # 2 descr=Full size DV - NTSC
    Resolution # 3 width=720
    Resolution # 3 height=576
    Resolution # 3 descr=Full size PAL
    Resolution # 4 width=360
    Resolution # 4 height=243
    Resolution # 4 descr=Half size NTSC
    Resolution # 5 width=360
    Resolution # 5 height=240
    Resolution # 5 descr=Half size DV - NTSC
    Resolution # 6 width=360
    Resolution # 6 height=288
    Resolution # 6 descr=Half size PAL
    [Microsoft RLE]
    Interleaved Type=1
    Remove=1
    Video Codec=1
    FrameRate 1=29.97
    Can Change FrameRate=1
    FrameRate 2=30
    FrameRate 3=25
    FieldOrder 1=0
    FieldOrder 2=1
    FieldOrder 3=2
    ColorSpace 1=0
    Can Change ColorSpace=1
    ColorSpace 2=1
    ColorSpace 3=2
    ColorSpace 4=3
    Resolution Changeable=1
    Num Resolutions=6
    Has Custom W and H=1
    Has Min W=0
    Has Min H=0
    Has Max W=0
    Has Max H=0
    Min W=-1
    Min H=-1
    Max W=-1
    Max H=-1
    Resolution # 1 width=720
    Resolution # 1 height=486
    Resolution # 1 descr=Full size NTSC
    Resolution # 2 width=720
    Resolution # 2 height=480
    Resolution # 2 descr=Full size DV - NTSC
    Resolution # 3 width=720
    Resolution # 3 height=576
    Resolution # 3 descr=Full size PAL
    Resolution # 4 width=360
    Resolution # 4 height=243
    Resolution # 4 descr=Half size NTSC
    Resolution # 5 width=360
    Resolution # 5 height=240
    Resolution # 5 descr=Half size DV - NTSC
    Resolution # 6 width=360
    Resolution # 6 height=288
    Resolution # 6 descr=Half size PAL
    ColorSpace 1=0
    Can Change ColorSpace=1
    ColorSpace 2=1
    ColorSpace 3=2
    ColorSpace 4=3
    Resolution Changeable=1
    Num Resolutions=6
    Has Custom W and H=1
    Has Min W=0
    Has Min H=0
    Has Max W=0
    Has Max H=0
    Min W=-1
    Min H=-1
    Max W=-1
    Max H=-1
    Resolution # 1 width=720
    Resolution # 1 height=486
    Resolution # 1 descr=Full size NTSC
    Resolution # 2 width=720
    Resolution # 2 height=480
    Resolution # 2 descr=Full size DV - NTSC
    Resolution # 3 width=720
    Resolution # 3 height=576
    Resolution # 3 descr=Full size PAL
    Resolution # 4 width=360
    Resolution # 4 height=243
    Resolution # 4 descr=Half size NTSC
    Resolution # 5 width=360
    Resolution # 5 height=240
    Resolution # 5 descr=Half size DV - NTSC
    Resolution # 6 width=360
    Resolution # 6 height=288
    Resolution # 6 descr=Half size PAL
    [Microsoft Video 1]
    Interleaved Type=1
    Video Codec=1
    FrameRate 1=29.97
    Can Change FrameRate=1
    FrameRate 2=30
    FrameRate 3=25
    FieldOrder 1=0
    FieldOrder 2=1
    FieldOrder 3=2
    ColorSpace 1=0
    Can Change ColorSpace=1
    ColorSpace 2=1
    ColorSpace 3=2
    ColorSpace 4=3
    Resolution Changeable=1
    Num Resolutions=6
    Has Custom W and H=1
    Has Min W=0
    Has Min H=0
    Has Max W=0
    Has Max H=0
    Min W=-1
    Min H=-1
    Max W=-1
    Max H=-1
    Resolution # 1 width=720
    Resolution # 1 height=486
    Resolution # 1 descr=Full size NTSC
    Resolution # 2 width=720
    Resolution # 2 height=480
    Resolution # 2 descr=Full size DV - NTSC
    Resolution # 3 width=720
    Resolution # 3 height=576
    Resolution # 3 descr=Full size PAL
    Resolution # 4 width=360
    Resolution # 4 height=243
    Resolution # 4 descr=Half size NTSC
    Resolution # 5 width=360
    Resolution # 5 height=240
    Resolution # 5 descr=Half size DV - NTSC
    Resolution # 6 width=360
    Resolution # 6 height=288
    Resolution # 6 descr=Half size PAL
    [Intel 4:2:0 Video V2.50]
    Remove=1
    Video Codec=1
    FrameRate 1=29.97
    Can Change FrameRate=1
    FrameRate 2=30
    FrameRate 3=25
    FieldOrder 1=0
    FieldOrder 2=1
    FieldOrder 3=2
    ColorSpace 1=0
    Can Change ColorSpace=1
    ColorSpace 2=1
    ColorSpace 3=2
    ColorSpace 4=3
    Resolution Changeable=1
    Num Resolutions=6
    Has Custom W and H=1
    Has Min W=0
    Has Min H=0
    Has Max W=0
    Has Max H=0
    Min W=-1
    Min H=-1
    Max W=-1
    Max H=-1
    Resolution # 1 width=720
    Resolution # 1 height=486
    Resolution # 1 descr=Full size NTSC
    Resolution # 2 width=720
    Resolution # 2 height=480
    Resolution # 2 descr=Full size DV - NTSC
    Resolution # 3 width=720
    Resolution # 3 height=576
    Resolution # 3 descr=Full size PAL
    Resolution # 4 width=360
    Resolution # 4 height=243
    Resolution # 4 descr=Half size NTSC
    Resolution # 5 width=360
    Resolution # 5 height=240
    Resolution # 5 descr=Half size DV - NTSC
    Resolution # 6 width=360
    Resolution # 6 height=288
    Resolution # 6 descr=Half size PAL
    [Mpeg1 & Mpeg2 Audio Codec]
    Video Codec=0
    Sample Rate 1=48000
    Can Change Sample Rate=0
    Sample Rate 2=44100
    Bit Depth 1=16
    Can Change Bit Rate=1
    Bit Depth 2=8
    Bit Depth 3=-1
    Channels 1=2
    Can Change Num Channels=1
    Channels 2=1
    [Uncompressed PCM]
    Video Codec=0
    Sample Rate 1=48000
    Can Change Sample Rate=1
    Sample Rate 2=44100
    Sample Rate 3=32000
    Sample Rate 4=22050
    Sample Rate 5=11025
    Bit Depth 1=16
    Can Change Bit Rate=1
    Bit Depth 2=8
    Bit Depth 3=-1
    Channels 1=2
    Can Change Num Channels=1
    Channels 2=1
    [WindowsMedia Audio (asf,wmv,wma)]
    Video Codec=0
    Sample Rate 1=48000
    Can Change Sample Rate=0
    Sample Rate 2=-1
    Sample Rate 3=-1
    Sample Rate 4=-1
    Sample Rate 5=-1
    Bit Depth 1=16
    Can Change Bit Rate=1
    Bit Depth 2=8
    Bit Depth 3=-1
    Channels 1=2
    Can Change Num Channels=1
    Channels 2=1
    [WMAudio Encoder DMO]
    Video Codec=0
    Sample Rate 1=48000
    Can Change Sample Rate=1
    Sample Rate 2=44100
    Sample Rate 3=32000
    Sample Rate 4=22050
    Sample Rate 5=11025
    Bit Depth 1=16
    Can Change Bit Rate=1
    Bit Depth 2=8
    Bit Depth 3=-1
    Channels 1=2
    Can Change Num Channels=1
    Channels 2=1
    [IAC2]
    Video Codec=0
    Sample Rate 1=48000
    Can Change Sample Rate=1
    Sample Rate 2=44100
    Sample Rate 3=32000
    Sample Rate 4=22050
    Sample Rate 5=11025
    Bit Depth 1=16
    Can Change Bit Rate=1
    Bit Depth 2=8
    Bit Depth 3=-1
    Channels 1=2
    Can Change Num Channels=1
    Channels 2=1
    [Voxware v1.1.8 Bitstream-Mode Codecs]
    Video Codec=0
    Sample Rate 1=48000
    Can Change Sample Rate=1
    Sample Rate 2=44100
    Sample Rate 3=32000
    Sample Rate 4=22050
    Sample Rate 5=11025
    Bit Depth 1=16
    Can Change Bit Rate=1
    Bit Depth 2=8
    Bit Depth 3=-1
    Channels 1=2
    Can Change Num Channels=1
    Channels 2=1
    [Lernout & Hauspie CELP 4.8kbit/s]
    Video Codec=0
    Sample Rate 1=48000
    Can Change Sample Rate=1
    Sample Rate 2=44100
    Sample Rate 3=32000
    Sample Rate 4=22050
    Sample Rate 5=11025
    Bit Depth 1=16
    Can Change Bit Rate=1
    Bit Depth 2=8
    Bit Depth 3=-1
    Channels 1=2
    Can Change Num Channels=1
    Channels 2=1
    [Lernout & Hauspie SBC 8kbit/s]
    Remove=1
    Video Codec=0
    Sample Rate 1=48000
    Can Change Sample Rate=0
    Sample Rate 2=-1
    Sample Rate 3=-1
    Sample Rate 4=-1
    Sample Rate 5=-1
    Bit Depth 1=16
    Can Change Bit Rate=1
    Bit Depth 2=8
    Bit Depth 3=-1
    Channels 1=2
    Can Change Num Channels=1
    Channels 2=1
    [Lernout & Hauspie SBC 12kbit/s]
    Remove=1
    Video Codec=0
    Sample Rate 1=48000
    Can Change Sample Rate=1
    Sample Rate 2=44100
    Sample Rate 3=32000
    Sample Rate 4=22050
    Sample Rate 5=11025
    Bit Depth 1=16
    Can Change Bit Rate=1
    Bit Depth 2=8
    Bit Depth 3=-1
    Channels 1=2
    Can Change Num Channels=1
    Channels 2=1
    [Lernout & Hauspie SBC 16kbit/s]
    Remove=1
    Video Codec=0
    Sample Rate 1=48000
    Can Change Sample Rate=1
    Sample Rate 2=44100
    Sample Rate 3=32000
    Sample Rate 4=22050
    Sample Rate 5=11025
    Bit Depth 1=16
    Can Change Bit Rate=1
    Bit Depth 2=8
    Bit Depth 3=-1
    Channels 1=2
    Can Change Num Channels=1
    Channels 2=1
    [Voxware MetaVoice]
    Video Codec=0
    Sample Rate 1=48000
    Can Change Sample Rate=1
    Sample Rate 2=44100
    Sample Rate 3=32000
    Sample Rate 4=22050
    Sample Rate 5=11025
    Bit Depth 1=16
    Can Change Bit Rate=1
    Bit Depth 2=8
    Bit Depth 3=-1
    Channels 1=2
    Can Change Num Channels=1
    Channels 2=1
    [IMA ADPCM]
    Video Codec=0
    Sample Rate 1=48000
    Can Change Sample Rate=0
    Sample Rate 2=-1
    Sample Rate 3=-1
    Sample Rate 4=-1
    Sample Rate 5=-1
    Bit Depth 1=16
    Can Change Bit Rate=1
    Bit Depth 2=8
    Bit Depth 3=-1
    Channels 1=2
    Can Change Num Channels=1
    Channels 2=1
    [PCM]
    Video Codec=0
    Sample Rate 1=48000
    Can Change Sample Rate=1
    Sample Rate 2=44100
    Sample Rate 3=32000
    Sample Rate 4=22050
    Sample Rate 5=11025
    Bit Depth 1=16
    Can Change Bit Rate=1
    Bit Depth 2=8
    Bit Depth 3=-1
    Channels 1=2
    Can Change Num Channels=1
    Channels 2=1
    [Microsoft ADPCM]
    Video Codec=0
    Sample Rate 1=48000
    Can Change Sample Rate=1
    Sample Rate 2=44100
    Sample Rate 3=32000
    Sample Rate 4=22050
    Sample Rate 5=11025
    Bit Depth 1=16
    Can Change Bit Rate=1
    Bit Depth 2=8
    Bit Depth 3=-1
    Channels 1=2
    Can Change Num Channels=1
    Channels 2=1
    [ACELP.net]
    Video Codec=0
    Sample Rate 1=48000
    Can Change Sample Rate=0
    Sample Rate 2=-1
    Sample Rate 3=-1
    Sample Rate 4=-1
    Sample Rate 5=-1
    Bit Depth 1=16
    Can Change Bit Rate=1
    Bit Depth 2=8
    Bit Depth 3=-1
    Channels 1=2
    Can Change Num Channels=1
    Channels 2=1
    [DSP Group TrueSpeed(TM)]
    Video Codec=0
    Sample Rate 1=48000
    Can Change Sample Rate=1
    Sample Rate 2=44100
    Sample Rate 3=32000
    Sample Rate 4=22050
    Sample Rate 5=11025
    Bit Depth 1=16
    Can Change Bit Rate=1
    Bit Depth 2=8
    Bit Depth 3=-1
    Channels 1=2
    Can Change Num Channels=1
    Channels 2=1
    [Windows Media Audio V1]
    Video Codec=0
    Sample Rate 1=48000
    Can Change Sample Rate=0
    Sample Rate 2=-1
    Sample Rate 3=-1
    Sample Rate 4=-1
    Sample Rate 5=-1
    Bit Depth 1=16
    Can Change Bit Rate=1
    Bit Depth 2=8
    Bit Depth 3=-1
    Channels 1=2
    Can Change Num Channels=1
    Channels 2=1
    [Windows Media Audio V2]
    Video Codec=0
    Sample Rate 1=48000
    Can Change Sample Rate=1
    Sample Rate 2=44100
    Sample Rate 3=32000
    Sample Rate 4=22050
    Sample Rate 5=11025
    Bit Depth 1=16
    Can Change Bit Rate=1
    Bit Depth 2=8
    Bit Depth 3=-1
    Channels 1=2
    Can Change Num Channels=1
    Channels 2=1
    [Voxware v1.1.6 Bitstream-Mode Codecs]
    Video Codec=0
    Sample Rate 1=48000
    Can Change Sample Rate=0
    Sample Rate 2=-1
    Sample Rate 3=-1
    Sample Rate 4=-1
    Sample Rate 5=-1
    Bit Depth 1=16
    Can Change Bit Rate=1
    Bit Depth 2=8
    Bit Depth 3=-1
    Channels 1=2
    Can Change Num Channels=1
    Channels 2=1
    [GSM 6.10]
    Video Codec=0
    Sample Rate 1=48000
    Can Change Sample Rate=0
    Sample Rate 2=-1
    Sample Rate 3=-1
    Sample Rate 4=-1
    Sample Rate 5=-1
    Bit Depth 1=16
    Can Change Bit Rate=1
    Bit Depth 2=8
    Bit Depth 3=-1
    Channels 1=2
    Can Change Num Channels=1
    Channels 2=1
    [Voxware Netscape Compatible Codecs]
    Video Codec=0
    Sample Rate 1=48000
    Can Change Sample Rate=1
    Sample Rate 2=44100
    Sample Rate 3=32000
    Sample Rate 4=22050
    Sample Rate 5=11025
    Bit Depth 1=16
    Can Change Bit Rate=1
    Bit Depth 2=8
    Bit Depth 3=-1
    Channels 1=2
    Can Change Num Channels=1
    Channels 2=1
    [elemediaTM AX24000P music codec]
    Video Codec=0
    Sample Rate 1=48000
    Can Change Sample Rate=1
    Sample Rate 2=44100
    Sample Rate 3=32000
    Sample Rate 4=22050
    Sample Rate 5=11025
    Bit Depth 1=16
    Can Change Bit Rate=1
    Bit Depth 2=8
    Bit Depth 3=-1
    Channels 1=2
    Can Change Num Channels=1
    Channels 2=1
    [Microsoft G.723.1]
    Video Codec=0
    Sample Rate 1=48000
    Can Change Sample Rate=1
    Sample Rate 2=44100
    Sample Rate 3=32000
    Sample Rate 4=22050
    Sample Rate 5=11025
    Bit Depth 1=16
    Can Change Bit Rate=1
    Bit Depth 2=8
    Bit Depth 3=-1
    Channels 1=2
    Can Change Num Channels=1
    Channels 2=1
    [CCITT A-Law]
    Video Codec=0
    Sample Rate 1=48000
    Can Change Sample Rate=1
    Sample Rate 2=44100
    Sample Rate 3=32000
    Sample Rate 4=22050
    Sample Rate 5=11025
    Bit Depth 1=16
    Can Change Bit Rate=1
    Bit Depth 2=8
    Bit Depth 3=-1
    Channels 1=2
    Can Change Num Channels=1
    Channels 2=1
    [SX8300P]
    Video Codec=0
    Sample Rate 1=48000
    Can Change Sample Rate=1
    Sample Rate 2=44100
    Sample Rate 3=32000
    Sample Rate 4=22050
    Sample Rate 5=11025
    Bit Depth 1=16
    Can Change Bit Rate=1
    Bit Depth 2=8
    Bit Depth 3=-1
    Channels 1=2
    Can Change Num Channels=1
    Channels 2=1
    [CCITT u-Law]
    Video Codec=0
    Sample Rate 1=48000
    Can Change Sample Rate=0
    Sample Rate 2=-1
    Sample Rate 3=-1
    Sample Rate 4=-1
    Sample Rate 5=-1
    Bit Depth 1=16
    Can Change Bit Rate=1
    Bit Depth 2=8
    Bit Depth 3=-1
    Channels 1=2
    Can Change Num Channels=1
    Channels 2=1
    [MPEG Layer-3]
    Video Codec=0
    Sample Rate 1=48000
    Can Change Sample Rate=1
    Sample Rate 2=44100
    Sample Rate 3=32000
    Sample Rate 4=22050
    Sample Rate 5=11025
    Bit Depth 1=16
    Can Change Bit Rate=1
    Bit Depth 2=8
    Bit Depth 3=-1
    Channels 1=2
    Can Change Num Channels=1
    Channels 2=1
    [Voxware v1.1.6/1.1.8 File-Mode Codecs]
    Remove=1
    Video Codec=0
    Sample Rate 1=48000
    Can Change Sample Rate=1
    Sample Rate 2=44100
    Sample Rate 3=32000
    Sample Rate 4=22050
    Sample Rate 5=11025
    Bit Depth 1=16
    Can Change Bit Rate=1
    Bit Depth 2=8
    Bit Depth 3=-1
    Channels 1=2
    Can Change Num Channels=1
    Channels 2=1
    [Matrox DV/DVCAM]
    Use Custom Frame Rate=0
    FrameRate 1=29.97
    Can Change FrameRate=0
    Stream Type=1
    Bit Rate=4000000
    Max Bit Rate=6000000
    Min Bit Rate=1000000
    Min Bit Rate Padding=0
    Quality=7000
    Quality P=10000
    Quality B=8000
    Num multi passes=2
    ColorSpace 1=0
    Can Change ColorSpace=0
    ColorSpace 2=-1
    ColorSpace 3=-1
    ColorSpace 4=-1
    System StreamType=0
    Num Resolutions=1
    Has Custom W and H=0
    Has Min W=0
    Has Min H=0
    Has Max W=0
    Has Max H=0
    Min W=-1
    Min H=-1
    Max W=-1
    Max H=-1
    Resolution # 1 width=720
    Resolution # 1 height=480
    Resolution # 1 descr=Full size DV NTSC
    [Matrox DV/DVCAM NTSC]
    Current Colorspace Index=0
    Current FrameRate Index=0
    Current FieldOrder Index=0
    Current Res Index=0
    Use Custom Res=1
    Custom Res W=720
    Custom Res H=480
    Use Custom Frame Rate=0
    Custom Frame Rate=30
    Rate Control Mode=1
    Stream Type=1
    Bit Rate=4000000
    Max Bit Rate=6000000
    Min Bit Rate=1000000
    Min Bit Rate Padding=0
    Quality=7000
    Quality P=10000
    Quality B=8000
    Num multi passes=2
    System StreamType=0
    [MainConcept DV Codec 2.1.0 NTSC]
    Current Colorspace Index=0
    Current FrameRate Index=0
    Current FieldOrder Index=0
    Current Res Index=0
    Use Custom Res=0
    Custom Res W=720
    Custom Res H=486
    Use Custom Frame Rate=0
    Custom Frame Rate=30
    Rate Control Mode=1
    Stream Type=1
    Bit Rate=4000000
    Max Bit Rate=6000000
    Min Bit Rate=1000000
    Min Bit Rate Padding=0
    Quality=7000
    Quality P=10000
    Quality B=8000
    Num multi passes=2
    System StreamType=0
    [MainConcept DV Codec 2.1.0 PAL]
    Current Colorspace Index=0
    Current FrameRate Index=0
    Current FieldOrder Index=0
    Current Res Index=0
    Use Custom Res=0
    Custom Res W=720
    Custom Res H=576
    Use Custom Frame Rate=0
    Custom Frame Rate=25
    Rate Control Mode=1
    Stream Type=1
    Bit Rate=4000000
    Max Bit Rate=6000000
    Min Bit Rate=1000000
    Min Bit Rate Padding=0
    Quality=7000
    Quality P=10000
    Quality B=8000
    Num multi passes=2
    System StreamType=0
    [Matrox DV/DVCAM PAL]
    Use Custom Frame Rate=0
    FrameRate 1=25
    Can Change FrameRate=0
    Stream Type=1
    Bit Rate=4000000
    Max Bit Rate=6000000
    Min Bit Rate=1000000
    Min Bit Rate Padding=0
    Quality=7000
    Quality P=10000
    Quality B=8000
    Num multi passes=2
    ColorSpace 1=0
    Can Change ColorSpace=0
    ColorSpace 2=-1
    ColorSpace 3=-1
    ColorSpace 4=-1
    System StreamType=0
    Num Resolutions=1
    Has Custom W and H=0
    Has Min W=0
    Has Min H=0
    Has Max W=0
    Has Max H=0
    Min W=-1
    Min H=-1
    Max W=-1
    Max H=-1
    Resolution # 1 width=720
    Resolution # 1 height=576
    Resolution # 1 descr=Full size DV Pal

    [Morgan M-JPEG cOdec]
    FieldOrder 1=2
    FieldOrder 2=1
    FieldOrder 3=0
    Can Change ColorSpace=1
    ColorSpace 1=2
    ColorSpace 2=1
    ColorSpace 3=0


    [LAME Audio Encoder]
    Sample Rate 1=48000
    Can Change Sample Rate=0
    Sample Rate 2=44100
    Bit Depth 1=16
    Can Change Bit Rate=0
    Bit Depth 2=8
    Bit Depth 3=-1
    Channels 1=2
    Can Change Num Channels=0
    Channels 2=1


    Click image for larger version

Name:	LAME4.jpg
Views:	14
Size:	819.9 KB
ID:	26840

    And then the 48000 appears. The new settings override the 44100 of the "configure audio codec" property page and the final output is 48 KHz
    General
    Complete name : D:\es320b.avi
    Format : AVI
    Format/Info : Audio Video Interleave
    File size : 13.6 MiB
    Duration : 5s 600ms
    Overall bit rate : 20.4 Mbps

    Video
    ID : 0
    Format : AVC
    Format/Info : Advanced Video Codec
    Format profile : High 4:2:2@L3.0
    Format settings, CABAC : No
    Format settings, ReFrames : 1 frame
    Codec ID : H264
    Duration : 5s 600ms
    Bit rate : 19.8 Mbps
    Width : 720 pixels
    Height : 576 pixels
    Display aspect ratio : 5:4
    Frame rate : 25.000 fps
    Standard : PAL
    Color space : YUV
    Chroma subsampling : 4:2:2
    Bit depth : 8 bits
    Scan type : MBAFF
    Bits/(Pixel*Frame) : 1.914
    Stream size : 13.2 MiB (97%)
    Writing library : x264 core 130 r2274bm c832fe9
    Encoding settings : cabac=0 / ref=1 / deblock=0:0:0 / analyse=0:0 / me=dia / subme=0 / psy=1 / psy_rd=1.00:0.00 / mixed_ref=0 / me_range=16 / chroma_me=1 / trellis=0 / 8x8dct=0 / cqm=0 / deadzone=21,11 / fast_pskip=1 / chroma_qp_offset=0 / threads=8 / lookahead_threads=8 / sliced_threads=1 / slices=8 / nr=0 / decimate=1 / interlaced=tff / bluray_compat=0 / constrained_intra=0 / bframes=0 / weightp=0 / keyint=250 / keyint_min=25 / scenecut=0 / intra_refresh=0 / rc=cqp / mbtree=0 / qp=18 / ip_ratio=1.40 / aq=0

    Audio
    ID : 1
    Format : MPEG Audio
    Format version : Version 1
    Format profile : Layer 3
    Codec ID : 55
    Codec ID/Hint : MP3
    Duration : 5s 592ms
    Bit rate mode : Constant
    Bit rate : 320 Kbps
    Channel(s) : 2 channels
    Sampling rate : 48.0 KHz
    Compression mode : Lossy
    Stream size : 218 KiB (2%)
    Alignment : Aligned on interleaves
    Interleave, duration : 24 ms (0.60 video frame)
    Writing library : LAME3.99.5ªªªªª ‘â
    Quote Quote  
  14. Member
    Join Date: Apr 2013
    Location: Italy
    Search PM
    maybe my cat have found solution: problem is the BladeFormats.dat of the nle

    it have to be configured so:

    [Uncompressed (YUY2)]
    FieldOrder 1=1
    Can Change ColorSpace=1
    ColorSpace 1=1

    [Morgan Multimedia M-JPEG SD codec]
    FieldOrder 1=1
    Can Change ColorSpace=1
    ColorSpace 1=1

    [x264vfw - H.264/MPEG-4 AVC codec]
    FieldOrder 1=1
    Can Change ColorSpace=1
    ColorSpace 1=1

    [LEAD MCMP/MJPEG Codec (VFW)]
    FieldOrder 1=1
    Can Change ColorSpace=1
    ColorSpace 1=1

    [Morgan M-JPEG codec]
    FieldOrder 1=1
    Can Change ColorSpace=1
    ColorSpace 1=1


    [Uncompressed (UYVY)]
    FieldOrder 1=1
    Can Change ColorSpace=1
    ColorSpace 1=1

    [PICVideo M-JPEG 4 32-bit DirectShow Compressor]
    FieldOrder 1=2
    FieldOrder 2=1
    FieldOrder 3=0
    Can Change ColorSpace=1
    ColorSpace 1=2
    ColorSpace 2=1
    ColorSpace 3=0

    [PICVideo M-JPEG 4 32-bit VfW Codec]
    FieldOrder 1=2
    FieldOrder 2=1
    FieldOrder 3=0
    Can Change ColorSpace=1
    ColorSpace 1=2
    ColorSpace 2=1
    ColorSpace 3=0


    [DV Video Encoder]
    Video Codec=1
    Video Notes=In order to set the output for DV for NTSC or PAL you need to configure this by pressing the Configure codec button and set the output for NTSC or PAL. Media Post only supports exporting in fixed NTSC or PAL output sizes.
    FrameRate 1=29.97
    Can Change FrameRate=1
    FrameRate 2=30
    FrameRate 3=25
    FieldOrder 1=0
    FieldOrder 2=1
    FieldOrder 3=2
    ColorSpace 1=0
    Can Change ColorSpace=0
    ColorSpace 2=-1
    ColorSpace 3=-1
    ColorSpace 4=-1
    Num Resolutions=2
    Has Custom W and H=0
    Has Min W=0
    Has Min H=0
    Has Max W=0
    Has Max H=0
    Min W=-1
    Min H=-1
    Max W=-1
    Max H=-1
    Resolution # 1 width=720
    Resolution # 1 height=480
    Resolution # 1 descr=Full size DV NTSC
    Resolution # 2 width=720
    Resolution # 2 height=576
    Resolution # 2 descr=Full size DV Pal
    [DV Video with interleaved DV Audio]
    Interleaved Type=1
    Video Codec=1
    Video Notes=In order to set the output for DV for NTSC or PAL you need to configure this by pressing the Configure codec button and set the output for NTSC or PAL. Media Post only supports exporting in fixed NTSC or PAL output sizes.
    FrameRate 1=29.97
    Can Change FrameRate=1
    FrameRate 2=30
    FrameRate 3=25
    FieldOrder 1=0
    FieldOrder 2=1
    FieldOrder 3=2
    ColorSpace 1=0
    Can Change ColorSpace=0
    ColorSpace 2=-1
    ColorSpace 3=-1
    ColorSpace 4=-1
    Num Resolutions=2
    Has Custom W and H=0
    Has Min W=0
    Has Min H=0
    Has Max W=0
    Has Max H=0
    Min W=-1
    Min H=-1
    Max W=-1
    Max H=-1
    Resolution # 1 width=720
    Resolution # 1 height=480
    Resolution # 1 descr=DV NTSC
    Resolution # 2 width=720
    Resolution # 2 height=576
    Resolution # 2 descr=DV Pal
    [Mpeg1 & Mpeg2 Codec]
    Interleaved Type=1
    Video Codec=1
    Video Notes=The width and height of MPEG files must be a multiple of 4.
    Can Change ColorSpace=0
    ColorSpace 1=0
    ColorSpace 2=-1
    ColorSpace 3=-1
    ColorSpace 4=-1
    Resolution Changeable=1
    Num Resolutions=6
    Has Custom W and H=1
    Has Min W=0
    Has Min H=0
    Has Max W=0
    Has Max H=0
    Min W=-1
    Min H=-1
    Max W=-1
    Max H=-1
    Resolution # 1 width=720
    Resolution # 1 height=480
    Resolution # 1 descr=DV - NTSC
    Resolution # 2 width=720
    Resolution # 2 height=576
    Resolution # 2 descr=Full size PAL
    Resolution # 3 width=360
    Resolution # 3 height=240
    Resolution # 3 descr=Half size DV - NTSC
    Resolution # 4 width=360
    Resolution # 4 height=288
    Resolution # 4 descr=Half size PAL
    FrameRate 1=29.97
    Can Change FrameRate=1
    FrameRate 2=30
    FrameRate 3=25
    FieldOrder 1=0
    FieldOrder 2=1
    FieldOrder 3=-1

    [Uncompressed (BGR24)]
    Video Codec=1
    FrameRate 1=29.97
    Can Change FrameRate=1
    FrameRate 2=30
    FrameRate 3=25
    FieldOrder 1=1
    FieldOrder 2=0
    FieldOrder 3=2
    Can Change ColorSpace=0
    ColorSpace 1=2
    ColorSpace 2=-1
    ColorSpace 3=-1
    ColorSpace 4=-1
    Resolution Changeable=1
    Num Resolutions=6
    Has Custom W and H=1
    Has Min W=0
    Has Min H=0
    Has Max W=0
    Has Max H=0
    Min W=-1
    Min H=-1
    Max W=-1
    Max H=-1
    Resolution # 1 width=720
    Resolution # 1 height=486
    Resolution # 1 descr=Full size NTSC
    Resolution # 2 width=720
    Resolution # 2 height=480
    Resolution # 2 descr=Full size DV - NTSC
    Resolution # 3 width=720
    Resolution # 3 height=576
    Resolution # 3 descr=Full size PAL
    Resolution # 4 width=360
    Resolution # 4 height=243
    Resolution # 4 descr=Half size NTSC
    Resolution # 5 width=360
    Resolution # 5 height=240
    Resolution # 5 descr=Half size DV - NTSC
    Resolution # 6 width=360
    Resolution # 6 height=288
    Resolution # 6 descr=Half size PAL
    [Uncompressed (BGR32)]
    Video Codec=1
    FrameRate 1=29.97
    Can Change FrameRate=1
    FrameRate 2=30
    FrameRate 3=25
    FieldOrder 1=1
    FieldOrder 2=0
    FieldOrder 3=2
    Can Change ColorSpace=0
    ColorSpace 1=3
    ColorSpace 2=-1
    ColorSpace 3=-1
    ColorSpace 4=-1
    Num Resolutions=6
    Has Custom W and H=1
    Has Min W=0
    Has Min H=0
    Has Max W=0
    Has Max H=0
    Min W=-1
    Min H=-1
    Max W=-1
    Max H=-1
    Resolution # 1 width=720
    Resolution # 1 height=486
    Resolution # 1 descr=Full size NTSC
    Resolution # 2 width=720
    Resolution # 2 height=480
    Resolution # 2 descr=Full size DV - NTSC
    Resolution # 3 width=720
    Resolution # 3 height=576
    Resolution # 3 descr=Full size PAL
    Resolution # 4 width=360
    Resolution # 4 height=243
    Resolution # 4 descr=Half size NTSC
    Resolution # 5 width=360
    Resolution # 5 height=240
    Resolution # 5 descr=Half size DV - NTSC
    Resolution # 6 width=360
    Resolution # 6 height=288
    Resolution # 6 descr=Half size PAL
    [MJPEG Compressor]
    Video Codec=1
    FrameRate 1=29.97
    Can Change FrameRate=1
    FrameRate 2=30
    FrameRate 3=25
    FieldOrder 1=0
    FieldOrder 2=1
    FieldOrder 3=2
    ColorSpace 1=0
    Can Change ColorSpace=1
    ColorSpace 2=1
    ColorSpace 3=2
    ColorSpace 4=3
    Resolution Changeable=1
    Num Resolutions=6
    Has Custom W and H=1
    Has Min W=0
    Has Min H=0
    Has Max W=0
    Has Max H=0
    Min W=-1
    Min H=-1
    Max W=-1
    Max H=-1
    Resolution # 1 width=720
    Resolution # 1 height=486
    Resolution # 1 descr=Full size NTSC
    Resolution # 2 width=720
    Resolution # 2 height=480
    Resolution # 2 descr=Full size DV - NTSC
    Resolution # 3 width=720
    Resolution # 3 height=576
    Resolution # 3 descr=Full size PAL
    Resolution # 4 width=360
    Resolution # 4 height=243
    Resolution # 4 descr=Half size NTSC
    Resolution # 5 width=360
    Resolution # 5 height=240
    Resolution # 5 descr=Half size DV - NTSC
    Resolution # 6 width=360
    Resolution # 6 height=288
    Resolution # 6 descr=Half size PAL
    [WindowsMedia Video (asf,wmv)]
    Interleaved Type=1
    Video Codec=1
    FrameRate 1=29.97
    Can Change FrameRate=1
    FrameRate 2=30
    FrameRate 3=25
    FieldOrder 1=0
    FieldOrder 2=1
    FieldOrder 3=2
    ColorSpace 1=0
    Can Change ColorSpace=1
    ColorSpace 2=1
    ColorSpace 3=2
    ColorSpace 4=3
    Resolution Changeable=1
    Num Resolutions=6
    Has Custom W and H=1
    Has Min W=0
    Has Min H=0
    Has Max W=0
    Has Max H=0
    Min W=-1
    Min H=-1
    Max W=-1
    Max H=-1
    Resolution # 1 width=720
    Resolution # 1 height=486
    Resolution # 1 descr=Full size NTSC
    Resolution # 2 width=720
    Resolution # 2 height=480
    Resolution # 2 descr=Full size DV - NTSC
    Resolution # 3 width=720
    Resolution # 3 height=576
    Resolution # 3 descr=Full size PAL
    Resolution # 4 width=360
    Resolution # 4 height=243
    Resolution # 4 descr=Half size NTSC
    Resolution # 5 width=360
    Resolution # 5 height=240
    Resolution # 5 descr=Half size DV - NTSC
    Resolution # 6 width=360
    Resolution # 6 height=288
    Resolution # 6 descr=Half size PAL
    [WMVideo Encoder DMO]
    Interleaved Type=1
    Remove=1
    Video Codec=1
    FrameRate 1=29.97
    Can Change FrameRate=1
    FrameRate 2=30
    FrameRate 3=25
    FieldOrder 1=0
    FieldOrder 2=1
    FieldOrder 3=2
    ColorSpace 1=0
    Can Change ColorSpace=1
    ColorSpace 2=1
    ColorSpace 3=2
    ColorSpace 4=3
    Resolution Changeable=1
    Num Resolutions=6
    Has Custom W and H=1
    Has Min W=0
    Has Min H=0
    Has Max W=0
    Has Max H=0
    Min W=-1
    Min H=-1
    Max W=-1
    Max H=-1
    Resolution # 1 width=720
    Resolution # 1 height=486
    Resolution # 1 descr=Full size NTSC
    Resolution # 2 width=720
    Resolution # 2 height=480
    Resolution # 2 descr=Full size DV - NTSC
    Resolution # 3 width=720
    Resolution # 3 height=576
    Resolution # 3 descr=Full size PAL
    Resolution # 4 width=360
    Resolution # 4 height=243
    Resolution # 4 descr=Half size NTSC
    Resolution # 5 width=360
    Resolution # 5 height=240
    Resolution # 5 descr=Half size DV - NTSC
    Resolution # 6 width=360
    Resolution # 6 height=288
    Resolution # 6 descr=Half size PAL
    [MSScreen encoder DMO]
    Interleaved Type=1
    Remove=1
    Video Codec=1
    FrameRate 1=29.97
    Can Change FrameRate=1
    FrameRate 2=30
    FrameRate 3=25
    FieldOrder 1=0
    FieldOrder 2=1
    FieldOrder 3=2
    ColorSpace 1=0
    Can Change ColorSpace=1
    ColorSpace 2=1
    ColorSpace 3=2
    ColorSpace 4=3
    Resolution Changeable=1
    Num Resolutions=6
    Has Custom W and H=1
    Has Min W=0
    Has Min H=0
    Has Max W=0
    Has Max H=0
    Min W=-1
    Min H=-1
    Max W=-1
    Max H=-1
    Resolution # 1 width=720
    Resolution # 1 height=486
    Resolution # 1 descr=Full size NTSC
    Resolution # 2 width=720
    Resolution # 2 height=480
    Resolution # 2 descr=Full size DV - NTSC
    Resolution # 3 width=720
    Resolution # 3 height=576
    Resolution # 3 descr=Full size PAL
    Resolution # 4 width=360
    Resolution # 4 height=243
    Resolution # 4 descr=Half size NTSC
    Resolution # 5 width=360
    Resolution # 5 height=240
    Resolution # 5 descr=Half size DV - NTSC
    Resolution # 6 width=360
    Resolution # 6 height=288
    Resolution # 6 descr=Half size PAL
    [WMVideo8 Encoder DMO]
    Interleaved Type=1
    Remove=1
    Video Codec=1
    FrameRate 1=29.97
    Can Change FrameRate=1
    FrameRate 2=30
    FrameRate 3=25
    FieldOrder 1=0
    FieldOrder 2=1
    FieldOrder 3=2
    ColorSpace 1=0
    Can Change ColorSpace=1
    ColorSpace 2=1
    ColorSpace 3=2
    ColorSpace 4=3
    Resolution Changeable=1
    Num Resolutions=6
    Has Custom W and H=1
    Has Min W=0
    Has Min H=0
    Has Max W=0
    Has Max H=0
    Min W=-1
    Min H=-1
    Max W=-1
    Max H=-1
    Resolution # 1 width=720
    Resolution # 1 height=486
    Resolution # 1 descr=Full size NTSC
    Resolution # 2 width=720
    Resolution # 2 height=480
    Resolution # 2 descr=Full size DV - NTSC
    Resolution # 3 width=720
    Resolution # 3 height=576
    Resolution # 3 descr=Full size PAL
    Resolution # 4 width=360
    Resolution # 4 height=243
    Resolution # 4 descr=Half size NTSC
    Resolution # 5 width=360
    Resolution # 5 height=240
    Resolution # 5 descr=Half size DV - NTSC
    Resolution # 6 width=360
    Resolution # 6 height=288
    Resolution # 6 descr=Half size PAL
    [Indeo® video 5.10 Compression Filter]
    Interleaved Type=1
    Video Codec=1
    FrameRate 1=29.97
    Can Change FrameRate=1
    FrameRate 2=30
    FrameRate 3=25
    FieldOrder 1=0
    FieldOrder 2=1
    FieldOrder 3=2
    ColorSpace 1=0
    Can Change ColorSpace=1
    ColorSpace 2=1
    ColorSpace 3=2
    ColorSpace 4=3
    Default ColorSpace=-1
    Resolution Changeable=1
    Num Resolutions=6
    Has Custom W and H=1
    Has Min W=0
    Has Min H=0
    Has Max W=0
    Has Max H=0
    Min W=-1
    Min H=-1
    Max W=-1
    Max H=-1
    Resolution # 1 width=720
    Resolution # 1 height=486
    Resolution # 1 descr=Full size NTSC
    Resolution # 2 width=720
    Resolution # 2 height=480
    Resolution # 2 descr=Full size DV - NTSC
    Resolution # 3 width=720
    Resolution # 3 height=576
    Resolution # 3 descr=Full size PAL
    Resolution # 4 width=360
    Resolution # 4 height=243
    Resolution # 4 descr=Half size NTSC
    Resolution # 5 width=360
    Resolution # 5 height=240
    Resolution # 5 descr=Half size DV - NTSC
    Resolution # 6 width=360
    Resolution # 6 height=288
    Resolution # 6 descr=Half size PAL
    [Cinepak Codec by Radius]
    Interleaved Type=1
    Remove=1
    Video Codec=1
    FrameRate 1=29.97
    Can Change FrameRate=1
    FrameRate 2=30
    FrameRate 3=25
    FieldOrder 1=0
    FieldOrder 2=1
    FieldOrder 3=2
    ColorSpace 1=0
    Can Change ColorSpace=1
    ColorSpace 2=1
    ColorSpace 3=2
    ColorSpace 4=3
    Resolution Changeable=1
    Num Resolutions=6
    Has Custom W and H=1
    Has Min W=0
    Has Min H=0
    Has Max W=0
    Has Max H=0
    Min W=-1
    Min H=-1
    Max W=-1
    Max H=-1
    Resolution # 1 width=720
    Resolution # 1 height=486
    Resolution # 1 descr=Full size NTSC
    Resolution # 2 width=720
    Resolution # 2 height=480
    Resolution # 2 descr=Full size DV - NTSC
    Resolution # 3 width=720
    Resolution # 3 height=576
    Resolution # 3 descr=Full size PAL
    Resolution # 4 width=360
    Resolution # 4 height=243
    Resolution # 4 descr=Half size NTSC
    Resolution # 5 width=360
    Resolution # 5 height=240
    Resolution # 5 descr=Half size DV - NTSC
    Resolution # 6 width=360
    Resolution # 6 height=288
    Resolution # 6 descr=Half size PAL
    [Indeo 4:2:0 Video V2.50]
    Interleaved Type=1
    Remove=1
    Video Codec=1
    FrameRate 1=29.97
    Can Change FrameRate=1
    FrameRate 2=30
    FrameRate 3=25
    FieldOrder 1=0
    FieldOrder 2=1
    FieldOrder 3=2
    ColorSpace 1=0
    Can Change ColorSpace=1
    ColorSpace 2=1
    ColorSpace 3=2
    ColorSpace 4=3
    Resolution Changeable=1
    Num Resolutions=6
    Has Custom W and H=1
    Has Min W=0
    Has Min H=0
    Has Max W=0
    Has Max H=0
    Min W=-1
    Min H=-1
    Max W=-1
    Max H=-1
    Resolution # 1 width=720
    Resolution # 1 height=486
    Resolution # 1 descr=Full size NTSC
    Resolution # 2 width=720
    Resolution # 2 height=480
    Resolution # 2 descr=Full size DV - NTSC
    Resolution # 3 width=720
    Resolution # 3 height=576
    Resolution # 3 descr=Full size PAL
    Resolution # 4 width=360
    Resolution # 4 height=243
    Resolution # 4 descr=Half size NTSC
    Resolution # 5 width=360
    Resolution # 5 height=240
    Resolution # 5 descr=Half size DV - NTSC
    Resolution # 6 width=360
    Resolution # 6 height=288
    Resolution # 6 descr=Half size PAL
    [Intel Indeo(R) Video R3.2]
    Interleaved Type=1
    Remove=1
    Video Codec=1
    FrameRate 1=29.97
    Can Change FrameRate=1
    FrameRate 2=30
    FrameRate 3=25
    FieldOrder 1=0
    FieldOrder 2=1
    FieldOrder 3=2
    ColorSpace 1=0
    Can Change ColorSpace=1
    ColorSpace 2=1
    ColorSpace 3=2
    ColorSpace 4=3
    Resolution Changeable=1
    Num Resolutions=6
    Has Custom W and H=1
    Has Min W=0
    Has Min H=0
    Has Max W=0
    Has Max H=0
    Min W=-1
    Min H=-1
    Max W=-1
    Max H=-1
    Resolution # 1 width=720
    Resolution # 1 height=486
    Resolution # 1 descr=Full size NTSC
    Resolution # 2 width=720
    Resolution # 2 height=480
    Resolution # 2 descr=Full size DV - NTSC
    Resolution # 3 width=720
    Resolution # 3 height=576
    Resolution # 3 descr=Full size PAL
    Resolution # 4 width=360
    Resolution # 4 height=243
    Resolution # 4 descr=Half size NTSC
    Resolution # 5 width=360
    Resolution # 5 height=240
    Resolution # 5 descr=Half size DV - NTSC
    Resolution # 6 width=360
    Resolution # 6 height=288
    Resolution # 6 descr=Half size PAL
    [Indeo® video 5.10]
    Interleaved Type=1
    Video Codec=1
    FrameRate 1=29.97
    Can Change FrameRate=1
    FrameRate 2=30
    FrameRate 3=25
    FieldOrder 1=0
    FieldOrder 2=1
    FieldOrder 3=2
    ColorSpace 1=0
    Can Change ColorSpace=1
    ColorSpace 2=1
    ColorSpace 3=2
    ColorSpace 4=3
    Resolution Changeable=1
    Num Resolutions=6
    Has Custom W and H=1
    Has Min W=0
    Has Min H=0
    Has Max W=0
    Has Max H=0
    Min W=-1
    Min H=-1
    Max W=-1
    Max H=-1
    Resolution # 1 width=720
    Resolution # 1 height=486
    Resolution # 1 descr=Full size NTSC
    Resolution # 2 width=720
    Resolution # 2 height=480
    Resolution # 2 descr=Full size DV - NTSC
    Resolution # 3 width=720
    Resolution # 3 height=576
    Resolution # 3 descr=Full size PAL
    Resolution # 4 width=360
    Resolution # 4 height=243
    Resolution # 4 descr=Half size NTSC
    Resolution # 5 width=360
    Resolution # 5 height=240
    Resolution # 5 descr=Half size DV - NTSC
    Resolution # 6 width=360
    Resolution # 6 height=288
    Resolution # 6 descr=Half size PAL
    [Microsoft H.261 Video Codec]
    Interleaved Type=1
    Remove=1
    Video Codec=1
    FrameRate 1=29.97
    Can Change FrameRate=1
    FrameRate 2=30
    FrameRate 3=25
    FieldOrder 1=0
    FieldOrder 2=1
    FieldOrder 3=2
    ColorSpace 1=0
    Can Change ColorSpace=1
    ColorSpace 2=1
    ColorSpace 3=2
    ColorSpace 4=3
    Resolution Changeable=1
    Num Resolutions=6
    Has Custom W and H=1
    Has Min W=0
    Has Min H=0
    Has Max W=0
    Has Max H=0
    Min W=-1
    Min H=-1
    Max W=-1
    Max H=-1
    Resolution # 1 width=720
    Resolution # 1 height=486
    Resolution # 1 descr=Full size NTSC
    Resolution # 2 width=720
    Resolution # 2 height=480
    Resolution # 2 descr=Full size DV - NTSC
    Resolution # 3 width=720
    Resolution # 3 height=576
    Resolution # 3 descr=Full size PAL
    Resolution # 4 width=360
    Resolution # 4 height=243
    Resolution # 4 descr=Half size NTSC
    Resolution # 5 width=360
    Resolution # 5 height=240
    Resolution # 5 descr=Half size DV - NTSC
    Resolution # 6 width=360
    Resolution # 6 height=288
    Resolution # 6 descr=Half size PAL
    [Microsoft H.263 Video Codec]
    Interleaved Type=1
    Remove=1
    Video Codec=1
    FrameRate 1=29.97
    Can Change FrameRate=1
    FrameRate 2=30
    FrameRate 3=25
    FieldOrder 1=0
    FieldOrder 2=1
    FieldOrder 3=2
    ColorSpace 1=0
    Can Change ColorSpace=1
    ColorSpace 2=1
    ColorSpace 3=2
    ColorSpace 4=3
    Resolution Changeable=1
    Num Resolutions=6
    Has Custom W and H=1
    Has Min W=0
    Has Min H=0
    Has Max W=0
    Has Max H=0
    Min W=-1
    Min H=-1
    Max W=-1
    Max H=-1
    Resolution # 1 width=720
    Resolution # 1 height=486
    Resolution # 1 descr=Full size NTSC
    Resolution # 2 width=720
    Resolution # 2 height=480
    Resolution # 2 descr=Full size DV - NTSC
    Resolution # 3 width=720
    Resolution # 3 height=576
    Resolution # 3 descr=Full size PAL
    Resolution # 4 width=360
    Resolution # 4 height=243
    Resolution # 4 descr=Half size NTSC
    Resolution # 5 width=360
    Resolution # 5 height=240
    Resolution # 5 descr=Half size DV - NTSC
    Resolution # 6 width=360
    Resolution # 6 height=288
    Resolution # 6 descr=Half size PAL
    [Microsoft RLE]
    Interleaved Type=1
    Remove=1
    Video Codec=1
    FrameRate 1=29.97
    Can Change FrameRate=1
    FrameRate 2=30
    FrameRate 3=25
    FieldOrder 1=0
    FieldOrder 2=1
    FieldOrder 3=2
    ColorSpace 1=0
    Can Change ColorSpace=1
    ColorSpace 2=1
    ColorSpace 3=2
    ColorSpace 4=3
    Resolution Changeable=1
    Num Resolutions=6
    Has Custom W and H=1
    Has Min W=0
    Has Min H=0
    Has Max W=0
    Has Max H=0
    Min W=-1
    Min H=-1
    Max W=-1
    Max H=-1
    Resolution # 1 width=720
    Resolution # 1 height=486
    Resolution # 1 descr=Full size NTSC
    Resolution # 2 width=720
    Resolution # 2 height=480
    Resolution # 2 descr=Full size DV - NTSC
    Resolution # 3 width=720
    Resolution # 3 height=576
    Resolution # 3 descr=Full size PAL
    Resolution # 4 width=360
    Resolution # 4 height=243
    Resolution # 4 descr=Half size NTSC
    Resolution # 5 width=360
    Resolution # 5 height=240
    Resolution # 5 descr=Half size DV - NTSC
    Resolution # 6 width=360
    Resolution # 6 height=288
    Resolution # 6 descr=Half size PAL
    ColorSpace 1=0
    Can Change ColorSpace=1
    ColorSpace 2=1
    ColorSpace 3=2
    ColorSpace 4=3
    Resolution Changeable=1
    Num Resolutions=6
    Has Custom W and H=1
    Has Min W=0
    Has Min H=0
    Has Max W=0
    Has Max H=0
    Min W=-1
    Min H=-1
    Max W=-1
    Max H=-1
    Resolution # 1 width=720
    Resolution # 1 height=486
    Resolution # 1 descr=Full size NTSC
    Resolution # 2 width=720
    Resolution # 2 height=480
    Resolution # 2 descr=Full size DV - NTSC
    Resolution # 3 width=720
    Resolution # 3 height=576
    Resolution # 3 descr=Full size PAL
    Resolution # 4 width=360
    Resolution # 4 height=243
    Resolution # 4 descr=Half size NTSC
    Resolution # 5 width=360
    Resolution # 5 height=240
    Resolution # 5 descr=Half size DV - NTSC
    Resolution # 6 width=360
    Resolution # 6 height=288
    Resolution # 6 descr=Half size PAL
    [Microsoft Video 1]
    Interleaved Type=1
    Video Codec=1
    FrameRate 1=29.97
    Can Change FrameRate=1
    FrameRate 2=30
    FrameRate 3=25
    FieldOrder 1=0
    FieldOrder 2=1
    FieldOrder 3=2
    ColorSpace 1=0
    Can Change ColorSpace=1
    ColorSpace 2=1
    ColorSpace 3=2
    ColorSpace 4=3
    Resolution Changeable=1
    Num Resolutions=6
    Has Custom W and H=1
    Has Min W=0
    Has Min H=0
    Has Max W=0
    Has Max H=0
    Min W=-1
    Min H=-1
    Max W=-1
    Max H=-1
    Resolution # 1 width=720
    Resolution # 1 height=486
    Resolution # 1 descr=Full size NTSC
    Resolution # 2 width=720
    Resolution # 2 height=480
    Resolution # 2 descr=Full size DV - NTSC
    Resolution # 3 width=720
    Resolution # 3 height=576
    Resolution # 3 descr=Full size PAL
    Resolution # 4 width=360
    Resolution # 4 height=243
    Resolution # 4 descr=Half size NTSC
    Resolution # 5 width=360
    Resolution # 5 height=240
    Resolution # 5 descr=Half size DV - NTSC
    Resolution # 6 width=360
    Resolution # 6 height=288
    Resolution # 6 descr=Half size PAL
    [Intel 4:2:0 Video V2.50]
    Remove=1
    Video Codec=1
    FrameRate 1=29.97
    Can Change FrameRate=1
    FrameRate 2=30
    FrameRate 3=25
    FieldOrder 1=0
    FieldOrder 2=1
    FieldOrder 3=2
    ColorSpace 1=0
    Can Change ColorSpace=1
    ColorSpace 2=1
    ColorSpace 3=2
    ColorSpace 4=3
    Resolution Changeable=1
    Num Resolutions=6
    Has Custom W and H=1
    Has Min W=0
    Has Min H=0
    Has Max W=0
    Has Max H=0
    Min W=-1
    Min H=-1
    Max W=-1
    Max H=-1
    Resolution # 1 width=720
    Resolution # 1 height=486
    Resolution # 1 descr=Full size NTSC
    Resolution # 2 width=720
    Resolution # 2 height=480
    Resolution # 2 descr=Full size DV - NTSC
    Resolution # 3 width=720
    Resolution # 3 height=576
    Resolution # 3 descr=Full size PAL
    Resolution # 4 width=360
    Resolution # 4 height=243
    Resolution # 4 descr=Half size NTSC
    Resolution # 5 width=360
    Resolution # 5 height=240
    Resolution # 5 descr=Half size DV - NTSC
    Resolution # 6 width=360
    Resolution # 6 height=288
    Resolution # 6 descr=Half size PAL
    [Mpeg1 & Mpeg2 Audio Codec]
    Video Codec=0
    Sample Rate 1=48000
    Can Change Sample Rate=0
    Sample Rate 2=44100
    Bit Depth 1=16
    Can Change Bit Rate=1
    Bit Depth 2=8
    Bit Depth 3=-1
    Channels 1=2
    Can Change Num Channels=1
    Channels 2=1
    [Uncompressed PCM]
    Video Codec=0
    Sample Rate 1=48000
    Can Change Sample Rate=1
    Sample Rate 2=44100
    Sample Rate 3=32000
    Sample Rate 4=22050
    Sample Rate 5=11025
    Bit Depth 1=16
    Can Change Bit Rate=1
    Bit Depth 2=8
    Bit Depth 3=-1
    Channels 1=2
    Can Change Num Channels=1
    Channels 2=1
    [WindowsMedia Audio (asf,wmv,wma)]
    Video Codec=0
    Sample Rate 1=48000
    Can Change Sample Rate=0
    Sample Rate 2=-1
    Sample Rate 3=-1
    Sample Rate 4=-1
    Sample Rate 5=-1
    Bit Depth 1=16
    Can Change Bit Rate=1
    Bit Depth 2=8
    Bit Depth 3=-1
    Channels 1=2
    Can Change Num Channels=1
    Channels 2=1
    [WMAudio Encoder DMO]
    Video Codec=0
    Sample Rate 1=48000
    Can Change Sample Rate=1
    Sample Rate 2=44100
    Sample Rate 3=32000
    Sample Rate 4=22050
    Sample Rate 5=11025
    Bit Depth 1=16
    Can Change Bit Rate=1
    Bit Depth 2=8
    Bit Depth 3=-1
    Channels 1=2
    Can Change Num Channels=1
    Channels 2=1
    [IAC2]
    Video Codec=0
    Sample Rate 1=48000
    Can Change Sample Rate=1
    Sample Rate 2=44100
    Sample Rate 3=32000
    Sample Rate 4=22050
    Sample Rate 5=11025
    Bit Depth 1=16
    Can Change Bit Rate=1
    Bit Depth 2=8
    Bit Depth 3=-1
    Channels 1=2
    Can Change Num Channels=1
    Channels 2=1
    [Voxware v1.1.8 Bitstream-Mode Codecs]
    Video Codec=0
    Sample Rate 1=48000
    Can Change Sample Rate=1
    Sample Rate 2=44100
    Sample Rate 3=32000
    Sample Rate 4=22050
    Sample Rate 5=11025
    Bit Depth 1=16
    Can Change Bit Rate=1
    Bit Depth 2=8
    Bit Depth 3=-1
    Channels 1=2
    Can Change Num Channels=1
    Channels 2=1
    [Lernout & Hauspie CELP 4.8kbit/s]
    Video Codec=0
    Sample Rate 1=48000
    Can Change Sample Rate=1
    Sample Rate 2=44100
    Sample Rate 3=32000
    Sample Rate 4=22050
    Sample Rate 5=11025
    Bit Depth 1=16
    Can Change Bit Rate=1
    Bit Depth 2=8
    Bit Depth 3=-1
    Channels 1=2
    Can Change Num Channels=1
    Channels 2=1
    [Lernout & Hauspie SBC 8kbit/s]
    Remove=1
    Video Codec=0
    Sample Rate 1=48000
    Can Change Sample Rate=0
    Sample Rate 2=-1
    Sample Rate 3=-1
    Sample Rate 4=-1
    Sample Rate 5=-1
    Bit Depth 1=16
    Can Change Bit Rate=1
    Bit Depth 2=8
    Bit Depth 3=-1
    Channels 1=2
    Can Change Num Channels=1
    Channels 2=1
    [Lernout & Hauspie SBC 12kbit/s]
    Remove=1
    Video Codec=0
    Sample Rate 1=48000
    Can Change Sample Rate=1
    Sample Rate 2=44100
    Sample Rate 3=32000
    Sample Rate 4=22050
    Sample Rate 5=11025
    Bit Depth 1=16
    Can Change Bit Rate=1
    Bit Depth 2=8
    Bit Depth 3=-1
    Channels 1=2
    Can Change Num Channels=1
    Channels 2=1
    [Lernout & Hauspie SBC 16kbit/s]
    Remove=1
    Video Codec=0
    Sample Rate 1=48000
    Can Change Sample Rate=1
    Sample Rate 2=44100
    Sample Rate 3=32000
    Sample Rate 4=22050
    Sample Rate 5=11025
    Bit Depth 1=16
    Can Change Bit Rate=1
    Bit Depth 2=8
    Bit Depth 3=-1
    Channels 1=2
    Can Change Num Channels=1
    Channels 2=1
    [Voxware MetaVoice]
    Video Codec=0
    Sample Rate 1=48000
    Can Change Sample Rate=1
    Sample Rate 2=44100
    Sample Rate 3=32000
    Sample Rate 4=22050
    Sample Rate 5=11025
    Bit Depth 1=16
    Can Change Bit Rate=1
    Bit Depth 2=8
    Bit Depth 3=-1
    Channels 1=2
    Can Change Num Channels=1
    Channels 2=1
    [IMA ADPCM]
    Video Codec=0
    Sample Rate 1=48000
    Can Change Sample Rate=0
    Sample Rate 2=-1
    Sample Rate 3=-1
    Sample Rate 4=-1
    Sample Rate 5=-1
    Bit Depth 1=16
    Can Change Bit Rate=1
    Bit Depth 2=8
    Bit Depth 3=-1
    Channels 1=2
    Can Change Num Channels=1
    Channels 2=1
    [PCM]
    Video Codec=0
    Sample Rate 1=48000
    Can Change Sample Rate=1
    Sample Rate 2=44100
    Sample Rate 3=32000
    Sample Rate 4=22050
    Sample Rate 5=11025
    Bit Depth 1=16
    Can Change Bit Rate=1
    Bit Depth 2=8
    Bit Depth 3=-1
    Channels 1=2
    Can Change Num Channels=1
    Channels 2=1
    [Microsoft ADPCM]
    Video Codec=0
    Sample Rate 1=48000
    Can Change Sample Rate=1
    Sample Rate 2=44100
    Sample Rate 3=32000
    Sample Rate 4=22050
    Sample Rate 5=11025
    Bit Depth 1=16
    Can Change Bit Rate=1
    Bit Depth 2=8
    Bit Depth 3=-1
    Channels 1=2
    Can Change Num Channels=1
    Channels 2=1
    [ACELP.net]
    Video Codec=0
    Sample Rate 1=48000
    Can Change Sample Rate=0
    Sample Rate 2=-1
    Sample Rate 3=-1
    Sample Rate 4=-1
    Sample Rate 5=-1
    Bit Depth 1=16
    Can Change Bit Rate=1
    Bit Depth 2=8
    Bit Depth 3=-1
    Channels 1=2
    Can Change Num Channels=1
    Channels 2=1
    [DSP Group TrueSpeed(TM)]
    Video Codec=0
    Sample Rate 1=48000
    Can Change Sample Rate=1
    Sample Rate 2=44100
    Sample Rate 3=32000
    Sample Rate 4=22050
    Sample Rate 5=11025
    Bit Depth 1=16
    Can Change Bit Rate=1
    Bit Depth 2=8
    Bit Depth 3=-1
    Channels 1=2
    Can Change Num Channels=1
    Channels 2=1
    [Windows Media Audio V1]
    Video Codec=0
    Sample Rate 1=48000
    Can Change Sample Rate=0
    Sample Rate 2=-1
    Sample Rate 3=-1
    Sample Rate 4=-1
    Sample Rate 5=-1
    Bit Depth 1=16
    Can Change Bit Rate=1
    Bit Depth 2=8
    Bit Depth 3=-1
    Channels 1=2
    Can Change Num Channels=1
    Channels 2=1
    [Windows Media Audio V2]
    Video Codec=0
    Sample Rate 1=48000
    Can Change Sample Rate=1
    Sample Rate 2=44100
    Sample Rate 3=32000
    Sample Rate 4=22050
    Sample Rate 5=11025
    Bit Depth 1=16
    Can Change Bit Rate=1
    Bit Depth 2=8
    Bit Depth 3=-1
    Channels 1=2
    Can Change Num Channels=1
    Channels 2=1
    [Voxware v1.1.6 Bitstream-Mode Codecs]
    Video Codec=0
    Sample Rate 1=48000
    Can Change Sample Rate=0
    Sample Rate 2=-1
    Sample Rate 3=-1
    Sample Rate 4=-1
    Sample Rate 5=-1
    Bit Depth 1=16
    Can Change Bit Rate=1
    Bit Depth 2=8
    Bit Depth 3=-1
    Channels 1=2
    Can Change Num Channels=1
    Channels 2=1
    [GSM 6.10]
    Video Codec=0
    Sample Rate 1=48000
    Can Change Sample Rate=0
    Sample Rate 2=-1
    Sample Rate 3=-1
    Sample Rate 4=-1
    Sample Rate 5=-1
    Bit Depth 1=16
    Can Change Bit Rate=1
    Bit Depth 2=8
    Bit Depth 3=-1
    Channels 1=2
    Can Change Num Channels=1
    Channels 2=1
    [Voxware Netscape Compatible Codecs]
    Video Codec=0
    Sample Rate 1=48000
    Can Change Sample Rate=1
    Sample Rate 2=44100
    Sample Rate 3=32000
    Sample Rate 4=22050
    Sample Rate 5=11025
    Bit Depth 1=16
    Can Change Bit Rate=1
    Bit Depth 2=8
    Bit Depth 3=-1
    Channels 1=2
    Can Change Num Channels=1
    Channels 2=1
    [elemediaTM AX24000P music codec]
    Video Codec=0
    Sample Rate 1=48000
    Can Change Sample Rate=1
    Sample Rate 2=44100
    Sample Rate 3=32000
    Sample Rate 4=22050
    Sample Rate 5=11025
    Bit Depth 1=16
    Can Change Bit Rate=1
    Bit Depth 2=8
    Bit Depth 3=-1
    Channels 1=2
    Can Change Num Channels=1
    Channels 2=1
    [Microsoft G.723.1]
    Video Codec=0
    Sample Rate 1=48000
    Can Change Sample Rate=1
    Sample Rate 2=44100
    Sample Rate 3=32000
    Sample Rate 4=22050
    Sample Rate 5=11025
    Bit Depth 1=16
    Can Change Bit Rate=1
    Bit Depth 2=8
    Bit Depth 3=-1
    Channels 1=2
    Can Change Num Channels=1
    Channels 2=1
    [CCITT A-Law]
    Video Codec=0
    Sample Rate 1=48000
    Can Change Sample Rate=1
    Sample Rate 2=44100
    Sample Rate 3=32000
    Sample Rate 4=22050
    Sample Rate 5=11025
    Bit Depth 1=16
    Can Change Bit Rate=1
    Bit Depth 2=8
    Bit Depth 3=-1
    Channels 1=2
    Can Change Num Channels=1
    Channels 2=1
    [SX8300P]
    Video Codec=0
    Sample Rate 1=48000
    Can Change Sample Rate=1
    Sample Rate 2=44100
    Sample Rate 3=32000
    Sample Rate 4=22050
    Sample Rate 5=11025
    Bit Depth 1=16
    Can Change Bit Rate=1
    Bit Depth 2=8
    Bit Depth 3=-1
    Channels 1=2
    Can Change Num Channels=1
    Channels 2=1
    [CCITT u-Law]
    Video Codec=0
    Sample Rate 1=48000
    Can Change Sample Rate=0
    Sample Rate 2=-1
    Sample Rate 3=-1
    Sample Rate 4=-1
    Sample Rate 5=-1
    Bit Depth 1=16
    Can Change Bit Rate=1
    Bit Depth 2=8
    Bit Depth 3=-1
    Channels 1=2
    Can Change Num Channels=1
    Channels 2=1
    [MPEG Layer-3]
    Video Codec=0
    Sample Rate 1=48000
    Can Change Sample Rate=1
    Sample Rate 2=44100
    Sample Rate 3=32000
    Sample Rate 4=22050
    Sample Rate 5=11025
    Bit Depth 1=16
    Can Change Bit Rate=1
    Bit Depth 2=8
    Bit Depth 3=-1
    Channels 1=2
    Can Change Num Channels=1
    Channels 2=1
    [Voxware v1.1.6/1.1.8 File-Mode Codecs]
    Remove=1
    Video Codec=0
    Sample Rate 1=48000
    Can Change Sample Rate=1
    Sample Rate 2=44100
    Sample Rate 3=32000
    Sample Rate 4=22050
    Sample Rate 5=11025
    Bit Depth 1=16
    Can Change Bit Rate=1
    Bit Depth 2=8
    Bit Depth 3=-1
    Channels 1=2
    Can Change Num Channels=1
    Channels 2=1
    [Matrox DV/DVCAM]
    Use Custom Frame Rate=0
    FrameRate 1=29.97
    Can Change FrameRate=0
    Stream Type=1
    Bit Rate=4000000
    Max Bit Rate=6000000
    Min Bit Rate=1000000
    Min Bit Rate Padding=0
    Quality=7000
    Quality P=10000
    Quality B=8000
    Num multi passes=2
    ColorSpace 1=0
    Can Change ColorSpace=0
    ColorSpace 2=-1
    ColorSpace 3=-1
    ColorSpace 4=-1
    System StreamType=0
    Num Resolutions=1
    Has Custom W and H=0
    Has Min W=0
    Has Min H=0
    Has Max W=0
    Has Max H=0
    Min W=-1
    Min H=-1
    Max W=-1
    Max H=-1
    Resolution # 1 width=720
    Resolution # 1 height=480
    Resolution # 1 descr=Full size DV NTSC
    [Matrox DV/DVCAM NTSC]
    Current Colorspace Index=0
    Current FrameRate Index=0
    Current FieldOrder Index=0
    Current Res Index=0
    Use Custom Res=1
    Custom Res W=720
    Custom Res H=480
    Use Custom Frame Rate=0
    Custom Frame Rate=30
    Rate Control Mode=1
    Stream Type=1
    Bit Rate=4000000
    Max Bit Rate=6000000
    Min Bit Rate=1000000
    Min Bit Rate Padding=0
    Quality=7000
    Quality P=10000
    Quality B=8000
    Num multi passes=2
    System StreamType=0
    [MainConcept DV Codec 2.1.0 NTSC]
    Current Colorspace Index=0
    Current FrameRate Index=0
    Current FieldOrder Index=0
    Current Res Index=0
    Use Custom Res=0
    Custom Res W=720
    Custom Res H=486
    Use Custom Frame Rate=0
    Custom Frame Rate=30
    Rate Control Mode=1
    Stream Type=1
    Bit Rate=4000000
    Max Bit Rate=6000000
    Min Bit Rate=1000000
    Min Bit Rate Padding=0
    Quality=7000
    Quality P=10000
    Quality B=8000
    Num multi passes=2
    System StreamType=0
    [MainConcept DV Codec 2.1.0 PAL]
    Current Colorspace Index=0
    Current FrameRate Index=0
    Current FieldOrder Index=0
    Current Res Index=0
    Use Custom Res=0
    Custom Res W=720
    Custom Res H=576
    Use Custom Frame Rate=0
    Custom Frame Rate=25
    Rate Control Mode=1
    Stream Type=1
    Bit Rate=4000000
    Max Bit Rate=6000000
    Min Bit Rate=1000000
    Min Bit Rate Padding=0
    Quality=7000
    Quality P=10000
    Quality B=8000
    Num multi passes=2
    System StreamType=0
    [Matrox DV/DVCAM PAL]
    Use Custom Frame Rate=0
    FrameRate 1=25
    Can Change FrameRate=0
    Stream Type=1
    Bit Rate=4000000
    Max Bit Rate=6000000
    Min Bit Rate=1000000
    Min Bit Rate Padding=0
    Quality=7000
    Quality P=10000
    Quality B=8000
    Num multi passes=2
    ColorSpace 1=0
    Can Change ColorSpace=0
    ColorSpace 2=-1
    ColorSpace 3=-1
    ColorSpace 4=-1
    System StreamType=0
    Num Resolutions=1
    Has Custom W and H=0
    Has Min W=0
    Has Min H=0
    Has Max W=0
    Has Max H=0
    Min W=-1
    Min H=-1
    Max W=-1
    Max H=-1
    Resolution # 1 width=720
    Resolution # 1 height=576
    Resolution # 1 descr=Full size DV Pal

    [Morgan M-JPEG cOdec]
    FieldOrder 1=2
    FieldOrder 2=1
    FieldOrder 3=0
    Can Change ColorSpace=1
    ColorSpace 1=2
    ColorSpace 2=1
    ColorSpace 3=0


    [LAME Audio Encoder]
    Sample Rate 1=48000
    Can Change Sample Rate=0
    Sample Rate 2=44100
    Bit Depth 1=16
    Can Change Bit Rate=0
    Bit Depth 2=8
    Bit Depth 3=-1
    Channels 1=2
    Can Change Num Channels=0
    Channels 2=1


    Attachment 26840

    And then the 48000 appears. The new settings override the 44100 of the "configure audio codec" property page and the final output is 48 KHz
    General
    Complete name : D:\es320b.avi
    Format : AVI
    Format/Info : Audio Video Interleave
    File size : 13.6 MiB
    Duration : 5s 600ms
    Overall bit rate : 20.4 Mbps

    Video
    ID : 0
    Format : AVC
    Format/Info : Advanced Video Codec
    Format profile : High 4:2:2@L3.0
    Format settings, CABAC : No
    Format settings, ReFrames : 1 frame
    Codec ID : H264
    Duration : 5s 600ms
    Bit rate : 19.8 Mbps
    Width : 720 pixels
    Height : 576 pixels
    Display aspect ratio : 5:4
    Frame rate : 25.000 fps
    Standard : PAL
    Color space : YUV
    Chroma subsampling : 4:2:2
    Bit depth : 8 bits
    Scan type : MBAFF
    Bits/(Pixel*Frame) : 1.914
    Stream size : 13.2 MiB (97%)
    Writing library : x264 core 130 r2274bm c832fe9
    Encoding settings : cabac=0 / ref=1 / deblock=0:0:0 / analyse=0:0 / me=dia / subme=0 / psy=1 / psy_rd=1.00:0.00 / mixed_ref=0 / me_range=16 / chroma_me=1 / trellis=0 / 8x8dct=0 / cqm=0 / deadzone=21,11 / fast_pskip=1 / chroma_qp_offset=0 / threads=8 / lookahead_threads=8 / sliced_threads=1 / slices=8 / nr=0 / decimate=1 / interlaced=tff / bluray_compat=0 / constrained_intra=0 / bframes=0 / weightp=0 / keyint=250 / keyint_min=25 / scenecut=0 / intra_refresh=0 / rc=cqp / mbtree=0 / qp=18 / ip_ratio=1.40 / aq=0

    Audio
    ID : 1
    Format : MPEG Audio
    Format version : Version 1
    Format profile : Layer 3
    Codec ID : 55
    Codec ID/Hint : MP3
    Duration : 5s 592ms
    Bit rate mode : Constant
    Bit rate : 320 Kbps
    Channel(s) : 2 channels
    Sampling rate : 48.0 KHz
    Compression mode : Lossy
    Stream size : 218 KiB (2%)
    Alignment : Aligned on interleaves
    Interleave, duration : 24 ms (0.60 video frame)
    Writing library : LAME3.99.5ªªªªª ‘â
    Quote Quote