VideoHelp Forum
+ Reply to Thread
Results 1 to 3 of 3
Thread
  1. Member
    Join Date: Nov 2007
    Location: United States
    Search Comp PM
    Hi all, after testing a bunch of software found from this forum I still can't seem to download videos from this site below, can someone please show me any other ways? Thank you very much.

    Sample link: http://newtitan.vn/karaoke/play/dong-song-buon-bang-cuong.titan
    Direct link?: http://123.30.245.27/file/stream/dongsongbuon-bangcuong.mp4?" + "sessionkey=8D8825C888B632E5854FF2BD4B4F3508D70128 37E16F6766D351F8A556A0E7CDE4239A671F4844BFE7B06BA6 36ED982A237920D5F6D3F5488F6075593E771FF76F9395928E C1D97CC8E516341E7381230863C29C7E9358B3C6E965BF8C0E 4F10A72136995CD992363A4DD8647D92333534753717CD398B E797D4FE6497EBB16DF095C4B295AC1BA4154160773292C55E

    Please log in to watch with info below:
    ID & Password: v1234v
    Last edited by coxanhvn; 16th Jun 2014 at 23:43.
    Quote Quote  
  2. Member
    Join Date: Nov 2007
    Location: United States
    Search Comp PM
    Hi zomac, thank you for trying. I think the reason why is you weren't logged in yet so can you please look on the top right corner of that page and click on the word "Đăng nhập" and log in with the info below? Please use Chrome or Firefox as it may not work properly in Internet Explorer. Thank you very much.

    ID & Password: v1234v
    Quote Quote  
  3. Hi ,

    @coxanhvn : see for info the general process at :
    http://forum.videohelp.com/threads/365296-Can-anyone-help-me-to-download-this-video?p=...=1#post2328948
    ---
    (first link) http://newtitan.vn/karaoke/play/dong-song-buon-bang-cuong.titan
    Column Type search 'application/octet-stream'
    ---
    Code:
    ffmpeg -i "http://123.30.245.27/file/stream/dongsongbuon-bangcuong.mp4?sessionkey=8D8825C888B632E5854FF2BD4B4F3508470114A4A7D855665
    4DA953DE6CCA4A19176DF8960FF020E523C327337DA4C438B871300C3B50567708FF05F5CA3E5EDB936B66305022693FC70C109E58C5D0679DCA896EEBF9784450637A835756219" -f mp
    egts Dong_Song.ts
    ffmpeg version N-53284-gd0a34ae Copyright (c) 2000-2013 the FFmpeg developers
      built on May 20 2013 01:02:45 with gcc 4.7.3 (GCC)
      configuration: --enable-gpl --enable-version3 --disable-w32threads --enable-avisynth --enable-bzlib --enable-fontconfig --enable-frei0r --enable-gnu
    tls --enable-iconv --enable-libass --enable-libbluray --enable-libcaca --enable-libfreetype --enable-libgsm --enable-libilbc --enable-libmp3lame --ena
    ble-libopencore-amrnb --enable-libopencore-amrwb --enable-libopenjpeg --enable-libopus --enable-librtmp --enable-libschroedinger --enable-libsoxr --en
    able-libspeex --enable-libtheora --enable-libtwolame --enable-libvo-aacenc --enable-libvo-amrwbenc --enable-libvorbis --enable-libvpx --enable-libx264
     --enable-libxavs --enable-libxvid --enable-zlib
      libavutil      52. 33.100 / 52. 33.100
      libavcodec     55. 10.101 / 55. 10.101
      libavformat    55.  7.100 / 55.  7.100
      libavdevice    55.  1.100 / 55.  1.100
      libavfilter     3. 68.101 /  3. 68.101
      libswscale      2.  3.100 /  2.  3.100
      libswresample   0. 17.102 /  0. 17.102
      libpostproc    52.  3.100 / 52.  3.100
    Input #0, mov,mp4,m4a,3gp,3g2,mj2, from 'http://123.30.245.27/file/stream/dongsongbuon-bangcuong.mp4?sessionkey=8D8825C888B632E5854FF2BD4B4F3508470114
    A4A7D8556654DA953DE6CCA4A19176DF8960FF020E523C327337DA4C438B871300C3B50567708FF05F5CA3E5EDB936B66305022693FC70C109E58C5D0679DCA896EEBF9784450637A83575
    6219':
      Metadata:
        major_brand     : isom
        minor_version   : 1
        compatible_brands: isomavc1
        creation_time   : 2014-06-03 05:07:53
        encoder         : FormatFactory : www.pcfreetime.com
      Duration: 00:04:32.10, start: 0.000000, bitrate: N/A
        Stream #0:0(und): Video: h264 (High) (avc1 / 0x31637661), yuv420p, 1280x720 [SAR 1:1 DAR 16:9], 1172 kb/s, 30 fps, 30 tbr, 120 tbn, 60 tbc
        Metadata:
          creation_time   : 2014-06-03 05:07:53
          handler_name    : video
        Stream #0:1(und): Audio: aac (mp4a / 0x6134706D), 44100 Hz, stereo, fltp, 221 kb/s
        Metadata:
          creation_time   : 2014-06-03 05:07:53
          handler_name    : sound
    Output #0, mpegts, to 'Dong_Song.ts':
      Metadata:
        major_brand     : isom
        minor_version   : 1
        compatible_brands: isomavc1
        encoder         : Lavf55.7.100
        Stream #0:0(und): Video: mpeg2video, yuv420p, 1280x720 [SAR 1:1 DAR 16:9], q=2-31, 200 kb/s, 90k tbn, 30 tbc
        Metadata:
          creation_time   : 2014-06-03 05:07:53
          handler_name    : video
        Stream #0:1(und): Audio: mp2, 44100 Hz, stereo, s16, 128 kb/s
        Metadata:
          creation_time   : 2014-06-03 05:07:53
          handler_name    : sound
    Stream mapping:
      Stream #0:0 -> #0:0 (h264 -> mpeg2video)
      Stream #0:1 -> #0:1 (aac -> mp2)
    Press [q] to stop, [?] for help
    frame= 8163 fps= 32 q=31.0 Lsize=   57564kB time=00:04:32.10 bitrate=1733.0kbits/s
    video:48099kB audio:4251kB subtitle:0 global headers:0kB muxing overhead 9.958354%
    Regards .
    Quote Quote