VideoHelp Forum
+ Reply to Thread
Results 1 to 3 of 3
Thread
  1. I have a few MP4 X264 files that i would to put on Bluray Disc, but i do not want to re-encode them at all. i want them untouched. But i also want to add some sort of menu to the bluray.

    Any ideas on what software i need to get this done.

    i have tried multiavchd but i think that its encoding the audio which may not be bluray compatible? I was just wondering if there was anyway i could change the audio before i put it in multiavchd? or will multiavchd only change the audio as i want the video untouched.

    Thank you so much in advance for the reply's.

    some media info below.

    i want this file basically with a menu and the video untouched, any help would be awesome.




    Video
    ID : 1
    Format : AVC
    Format/Info : Advanced Video Codec
    Format profile : High@L4.0
    Format settings, CABAC : Yes
    Format settings, ReFrames : 3 frames
    Format settings, GOP : M=2, N=75
    Codec ID : avc1
    Codec ID/Info : Advanced Video Coding
    Duration : 45mn 53s
    Bit rate mode : Variable
    Bit rate : 4 347 Kbps
    Maximum bit rate : 5 500 Kbps
    Width : 1 280 pixels
    Height : 720 pixels
    Display aspect ratio : 16:9
    Frame rate mode : Constant
    Frame rate : 29.970 fps
    Color space : YUV
    Chroma subsampling : 4:2:0
    Bit depth : 8 bits
    Scan type : Progressive
    Bits/(Pixel*Frame) : 0.157
    Stream size : 1.39 GiB (98%)

    Audio
    ID : 2
    Format : AAC
    Format/Info : Advanced Audio Codec
    Format profile : LC
    Codec ID : 40
    Duration : 45mn 53s
    Bit rate mode : Constant
    Bit rate : 93.5 Kbps
    Channel(s) : 2 channels
    Channel positions : Front: L R
    Sampling rate : 48.0 KHz
    Compression mode : Lossy
    Stream size : 30.7 MiB (2%)

    Text
    ID : 1-CC1
    Format : EIA-608
    Muxing mode : SCTE 128 / DTVCC Transport
    Muxing mode, more info : Muxed in Video #1
    Duration : 45mn 53s
    Bit rate mode : Constant
    Stream size : 0.00 Byte (0%)
    Encoded stream size : 0.00 Byte (0%)
    Quote Quote  
  2. Member
    Join Date: Sep 2007
    Location: Canada
    Search Comp PM
    It's not possible without re-encoding (as an authored blu-ray disc )because 1280x720p29.97 isn't supported by blu-ray standard . It needs to be 1280x720p59.94, either with duplicates or a frame repeat flag

    The audio isn't compliant either (AAC not supported by BD standard, needs to be re-encoded as well)

    You can do it as a data disc, if your player supports it (non authored, no menu)
    Quote Quote  
  3. Member
    Join Date: May 2014
    Location: Down the road, last house on the right
    Search Comp PM
    BluRay wants to see ac-3, WAV (or 'LPCM') or DTS audio codecs. For AVC video (H264), profiles should be High @ 4.1

    Edit: poisondeathray beat me to the punch.
    Last edited by Dougster; 25th May 2014 at 14:59. Reason: additional
    Quote Quote