VideoHelp Forum
+ Reply to Thread
Page 1 of 3
1 2 3 LastLast
Results 1 to 30 of 89
Thread
  1. Member Tafflad's Avatar
    Join Date: Nov 2009
    Location: Wales
    Search Comp PM
    Is there a codec available for Virtual Dub to support following H264/MP4 video ?

    Gspot tells me codec is AVC1 ( H.264/MP4)
    Medi infor for files:

    Format : MPEG-4
    Format profile : Base Media / Version 2
    Codec ID : mp42
    File size : 528 MiB
    Duration : 2mn 6s
    Overall bit rate : 35.0 Mbps
    Performer :
    Encoded date : UTC 2014-05-04 11:00:43
    Tagged date : UTC 2014-05-04 11:00:43
    Copyright :

    Video
    ID : 1
    Format : AVC
    Format/Info : Advanced Video Codec
    Format profile : High@L4.2
    Format settings, CABAC : Yes
    Format settings, ReFrames : 2 frames
    Codec ID : avc1
    Codec ID/Info : Advanced Video Coding
    Duration : 2mn 6s
    Bit rate : 34.8 Mbps
    Width : 1 920 pixels
    Height : 1 080 pixels
    Display aspect ratio : 16:9
    Frame rate mode : Constant
    Frame rate : 59.940 fps
    Color space : YUV
    Chroma subsampling : 4:2:0
    Bit depth : 8 bits
    Scan type : Progressive
    Bits/(Pixel*Frame) : 0.280
    Stream size : 526 MiB (100%)
    Language : English
    Encoded date : UTC 2014-05-04 11:00:43
    Tagged date : UTC 2014-05-04 11:00:43
    Color primaries : BT.709
    Transfer characteristics : BT.709
    Matrix coefficients : BT.709
    Last edited by Tafflad; 4th May 2014 at 10:32.
    Quote Quote  
  2. Member
    Join Date: Jan 2014
    Location: Kazakhstan
    Search Comp PM
    Hi!
    Install if necessary > x264vfw, ffdshow
    Version with support .mkv (you need to change the container) > VirtualDub_1.10.5t4 (with a set of filters and plug-ins) > ru-board.com
    Last edited by Gravitator; 11th May 2014 at 05:14.
    Quote Quote  
  3. Member Tafflad's Avatar
    Join Date: Nov 2009
    Location: Wales
    Search Comp PM
    Part way there .. video seems oK ... but now complains of no audio codec...
    Gspot states it requires MPEG-4 AAC LC

    any suggestions where I go for this.


    BTW - the files play fine with WMP or VLC ... but not Virtual Dub

    I did try the AAC ACM codec (version 1.9 of an AAC ACM Codec for Windows)
    But when I try to 'play' in VD, I only get a very short spurt of sound about every second, and video is matching this ....all completely stuttering.
    Last edited by Tafflad; 4th May 2014 at 11:33.
    Quote Quote  
  4. Member
    Join Date: Jun 2012
    Location: Gurupi
    Search Comp PM
    The VirtualDub does not support this format natively, to open it you must use a plugin or use an avisynth script program.
    Quote Quote  
  5. Member Tafflad's Avatar
    Join Date: Nov 2009
    Location: Wales
    Search Comp PM
    OK ... thanks ... .. quick Google and I found "DShow input driver 0.5"
    dropped that into plugin folder and the video plays fine .... but Audio still cutting in for less than 1 sec bursts
    Last edited by Tafflad; 4th May 2014 at 11:49.
    Quote Quote  
  6. Lone soldier Cauptain's Avatar
    Join Date: Jan 2006
    Location: Brazil
    Search Comp PM
    Originally Posted by Gravitator View Post
    Hi!
    Install if necessary > x264vfw
    Version with support .mkv (you need to change the container) >VirtualDub_1.10.5t4
    Do you have Englsih version for this?? Awesome build. Full FLV/MP4 output without external plugins config....Excellent!!


    Last edited by Cauptain; 4th May 2014 at 12:35.
    Claudio
    Quote Quote  
  7. Member
    Join Date: Jun 2012
    Location: Gurupi
    Search Comp PM
    Originally Posted by Tafflad View Post
    OK ... thanks ... .. quick Google and I found "DShow input driver 0.5"
    dropped that into plugin folder and the video plays fine .... but Audio still cutting in for less than 1 sec bursts
    Try FFmpeg plugin, works better.
    Quote Quote  
  8. vanished El Heggunte's Avatar
    Join Date: Jun 2009
    Location: Misplaced Childhood
    Search Comp PM
    The AAC ACM plugin has some problems with HE-AAC.

    Sadly, your MediaInfo report says nothing about the audio part.

    Besides, VirtualDub is not a player, and the VfW interface was not designed for high-performance.
    Quote Quote  
  9. Member
    Join Date: Jan 2014
    Location: Kazakhstan
    Search Comp PM
    Today I understood that he crooked or not plays AAC
    What are going to do with the file? For mixing is "AviUtl editor" cope with your requests?
    Quote Quote  
  10. Member
    Join Date: Jan 2014
    Location: Kazakhstan
    Search Comp PM
    Originally Posted by Cauptain View Post
    Do you have Englsih version for this??
    Russian Assembly
    maybe this version is suitable > ru-board.com (source)
    Attached Files
    Last edited by Gravitator; 10th May 2014 at 05:06.
    Quote Quote  
  11. Lone soldier Cauptain's Avatar
    Join Date: Jan 2006
    Location: Brazil
    Search Comp PM
    Originally Posted by Gravitator View Post
    Originally Posted by Cauptain View Post
    Do you have Englsih version for this??
    Russian Assembly
    maybe this version is suitable

    I overwrite with English version build and get FLV/MP4 output, some issue in text only.




    Its open .TS, .MKV and .MP4 withou plugins select. Another great work.
    Claudio
    Quote Quote  
  12. Member
    Join Date: Jan 2014
    Location: Kazakhstan
    Search Comp PM
    Downloading from the Russian side FORUM
    Quote Quote  
  13. Lone soldier Cauptain's Avatar
    Join Date: Jan 2006
    Location: Brazil
    Search Comp PM
    Thank you mate. Look it now.
    Claudio
    Quote Quote  
  14. Member
    Join Date: Nov 2002
    Location: United States
    Search Comp PM
    Originally Posted by Tafflad View Post
    Is there a codec available for Virtual Dub to support following H264/MP4 video ?

    Gspot tells me codec is AVC1 ( H.264/MP4)
    Medi infor for files:

    Format : MPEG-4
    Format profile : Base Media / Version 2
    Codec ID : mp42
    File size : 528 MiB
    Duration : 2mn 6s
    Overall bit rate : 35.0 Mbps
    Performer :
    Encoded date : UTC 2014-05-04 11:00:43
    Tagged date : UTC 2014-05-04 11:00:43
    Copyright :

    Video
    ID : 1
    Format : AVC
    Format/Info : Advanced Video Codec
    Format profile : High@L4.2
    Format settings, CABAC : Yes
    Format settings, ReFrames : 2 frames
    Codec ID : avc1
    Codec ID/Info : Advanced Video Coding
    Duration : 2mn 6s
    Bit rate : 34.8 Mbps
    Width : 1 920 pixels
    Height : 1 080 pixels
    Display aspect ratio : 16:9
    Frame rate mode : Constant
    Frame rate : 59.940 fps
    Color space : YUV
    Chroma subsampling : 4:2:0
    Bit depth : 8 bits
    Scan type : Progressive
    Bits/(Pixel*Frame) : 0.280
    Stream size : 526 MiB (100%)
    Language : English
    Encoded date : UTC 2014-05-04 11:00:43
    Tagged date : UTC 2014-05-04 11:00:43
    Color primaries : BT.709
    Transfer characteristics : BT.709
    Matrix coefficients : BT.709


    The answer to your questions are in the link for Virtualdub in your post... http://www.videohelp.com/tools/Virtualdub

    Install all the plugins by fcchandler, DirectShow by phaeron and FFMPEG Input Driver by raythe0n. Click on More plugins here which will take you to the Virtualdub forum. Download and install the AAC/ACM and AC3/ACM files from fcchandler. There are links to other VFW codecs on this page also.

    Install ffdshow and under VFW configuration, set libavcodec for H.264/AVC. You can set any other file type to libavcodec that you wish (I like to use the stand alone encoders myself) and set Windows Media Files 1/7, 2/8 and 3/9 to wmv9 and vc1 to libavcodec.
    Quote Quote  
  15. Member Tafflad's Avatar
    Join Date: Nov 2009
    Location: Wales
    Search Comp PM
    Originally Posted by El Heggunte View Post
    The AAC ACM plugin has some problems with HE-AAC.

    Sadly, your MediaInfo report says nothing about the audio part.

    Besides, VirtualDub is not a player, and the VfW interface was not designed for high-performance.
    sorry had missed that when I used cut & paste ..
    Audio is:

    ID : 2
    Format : AAC
    Format/Info : Advanced Audio Codec
    Format profile : LC
    Codec ID : 40
    Duration : 3s 456ms
    Bit rate mode : Constant
    Bit rate : 128 Kbps
    Channel(s) : 2 channels
    Channel positions : Front: L R
    Sampling rate : 48.0 KHz
    Compression mode : Lossy
    Stream size : 53.7 KiB (0%)
    Language : English
    Encoded date : UTC 2014-05-04 10:59:31
    Tagged date : UTC 2014-05-04 10:59:31
    Quote Quote  
  16. Member Tafflad's Avatar
    Join Date: Nov 2009
    Location: Wales
    Search Comp PM
    Originally Posted by DarrellS View Post
    , DirectShow by phaeron and FFMPEG Input Driver by raythe0n. .
    Went and got all the FCCHandler items ... One I am struggling to find is Phareon's FFMPEG .... the link gave a huge thread of discussions on it, is there a dedicated location for latest version (32 bit)
    Last edited by Tafflad; 6th May 2014 at 05:15.
    Quote Quote  
  17. Member Tafflad's Avatar
    Join Date: Nov 2009
    Location: Wales
    Search Comp PM
    Thanks ... got the Phaeron item I needed ... as an FYI for others all the FCCHandler stuff although listed is not avail from that site.
    Quote Quote  
  18. Member
    Join Date: Nov 2002
    Location: United States
    Search Comp PM
    I believe the Virtualdub page on Videohelp is up to date now so you should be able to get just about anything Virtualdub here now.

    http://www.videohelp.com/tools/Virtualdub
    Quote Quote  
  19. Member Tafflad's Avatar
    Join Date: Nov 2009
    Location: Wales
    Search Comp PM
    The FFMEG plug in download includes a folder of DLL's but no instructions regarding them ... can you advise where (if) I need to put these in a specific location.

    I am using VD 32 bit on W7.


    EDIT- I tried in VD folder and it complained on start up for FFDLLS ... tried putting complete folder in Plugins folder and it seems happy
    Last edited by Tafflad; 6th May 2014 at 13:01.
    Quote Quote  
  20. Member
    Join Date: Jan 2014
    Location: Kazakhstan
    Search Comp PM
    Originally Posted by Tafflad View Post

    The FFMEG plug in download includes a folder of DLL's but no instructions regarding them ... can you advise where (if) I need to put these in a specific location.
    X:\VirtualDub\plugins32

    how do you know that it works?
    Quote Quote  
  21. Member Tafflad's Avatar
    Join Date: Nov 2009
    Location: Wales
    Search Comp PM
    well until I put it there ... VD was complaining that there was missing file on start up, but stopped complaining when I put folder there.


    Still have the problem that Video plays ... but audio is pulsing ... less that 1 sec burst of audio every second ...
    I have installed the plugins .... the bit I think I'm missing was the comment :

    Install ffdshow and under VFW configuration, set libavcodec for H.264/AVC. You can set any other file type to libavcodec that you wish (I like to use the stand alone encoders myself) and set Windows Media Files 1/7, 2/8 and 3/9 to wmv9 and vc1 to libavcodec.

    I am not sure what/how to do that .... opening VFW shows codecs but not H.264/AVC:

    Name:  VFW.jpg
Views: 611
Size:  34.3 KB
    Quote Quote  
  22. Member
    Join Date: Nov 2002
    Location: United States
    Search Comp PM
    Originally Posted by Tafflad View Post
    The FFMEG plug in download includes a folder of DLL's but no instructions regarding them ... can you advise where (if) I need to put these in a specific location.

    I am using VD 32 bit on W7.


    EDIT- I tried in VD folder and it complained on start up for FFDLLS ... tried putting complete folder in Plugins folder and it seems happy

    Unzip the downloaded file with 7zip and there are two folders, 32 bit and 64 bit. Open the 32 bit folder and copy the files to your plugins 32 folder in Virtualdub.
    Quote Quote  
  23. Member
    Join Date: Nov 2002
    Location: United States
    Search Comp PM
    Originally Posted by Tafflad View Post
    well until I put it there ... VD was complaining that there was missing file on start up, but stopped complaining when I put folder there.


    Still have the problem that Video plays ... but audio is pulsing ... less that 1 sec burst of audio every second ...
    I have installed the plugins .... the bit I think I'm missing was the comment :

    Install ffdshow and under VFW configuration, set libavcodec for H.264/AVC. You can set any other file type to libavcodec that you wish (I like to use the stand alone encoders myself) and set Windows Media Files 1/7, 2/8 and 3/9 to wmv9 and vc1 to libavcodec.

    I am not sure what/how to do that .... opening VFW shows codecs but not H.264/AVC:

    Attachment 24978
    You're looking at the encoders tab. Switch it to the Decoders tab.
    Attached Thumbnails Click image for larger version

Name:	vd01.jpg
Views:	21
Size:	230.5 KB
ID:	24980  

    Last edited by DarrellS; 6th May 2014 at 14:19.
    Quote Quote  
  24. Member Tafflad's Avatar
    Join Date: Nov 2009
    Location: Wales
    Search Comp PM
    OK ... H.264 was already set to libavcodec
    WM 1/7 WMV 2/8 WMV 3/9 set to WMV9
    VC-1 set to libavcodec


    Still the same video plays but only the pulsing audio ...
    Quote Quote  
  25. Member Tafflad's Avatar
    Join Date: Nov 2009
    Location: Wales
    Search Comp PM
    I am not intending to use VD for my main player ... but want to be able to play so I can select sections.
    Quote Quote  
  26. Member
    Join Date: Mar 2008
    Location: United States
    Search Comp PM
    Try setting FFdshow audio decoder config to AAC/libfaad2.
    Quote Quote  
  27. Member Tafflad's Avatar
    Join Date: Nov 2009
    Location: Wales
    Search Comp PM
    Set that ... no change
    Quote Quote  
  28. Member
    Join Date: Mar 2008
    Location: United States
    Search Comp PM
    Try rendering the media with graphstudio to look/check the dshow graph.
    Does the file play OK in graphstudio?

    Which OS are you using ?
    Quote Quote  
  29. Member Tafflad's Avatar
    Join Date: Nov 2009
    Location: Wales
    Search Comp PM
    I don't have that program installed .. and don't really want to put yet another one on my PC.

    PC is W7 64 bit.
    VD is 32 bit

    Files pays fine as does audio with VLC, MPC, WMP & Quicktime

    Video plays fine with VD .. just audio issue
    Quote Quote