VideoHelp Forum
+ Reply to Thread
Results 1 to 5 of 5
Thread
  1. I'm trying to convert a .mkv file file to .avi, I used Super to convert and it did successfully. The problem is that the original file (.mkv) have two audio streams (dual audio), and when I convert it to .avi, Super "takes" only one audio stream but I want both.



    Attachment 24418



    MediaInfo:

    Complete name : C:\Documents and Settings\x\Desktop\file.mkv
    Format : Matroska
    Format version : Version 2
    File size : 4.95 GiB
    Duration : 2h 8mn
    Overall bit rate : 5 519 Kbps
    Encoded date : UTC 2013-09-11 00:30:00
    Writing application : mkvmerge v4.0.0 ('The Stars were mine') built on Jun 6 2010 16:18:42
    Writing library : libebml v1.0.0 + libmatroska v1.0.0

    Vídeo
    ID : 1
    Format : AVC
    Format/Info : Advanced Video Codec
    Format profile : High@L4.1
    Format settings, CABAC : Yes
    Format settings, ReFrames : 10 frames
    Codec ID : V_MPEG4/ISO/AVC
    Duration : 2h 8mn
    Bit rate : 4 237 Kbps
    Width : 1 280 pixels
    Height : 544 pixels
    Display aspect ratio : 2.35:1
    Frame rate mode : TConstant
    Frame rate : 23.976 fps
    Color space : YUV
    Chroma subsampling : 4:2:0
    Bit depth : 8 bits
    Scan type : Progressive
    Bits/(Pixel*Frame) : 0.254
    Stream size : 3.70 GiB (75%)
    Title : file
    Writing library : x264 core 104 r1688 0b36c6d
    Encoding settings : cabac=1 / ref=10 / deblock=1:-3:-3 / analyse=0x3:0x113 / me=tesa / subme=10 / psy=1 / psy_rd=0.90:0.00 / mixed_ref=1 / me_range=16 / chroma_me=1 / trellis=2 / 8x8dct=1 / cqm=0 / deadzone=21,11 / fast_pskip=0 / chroma_qp_offset=-2 / threads=12 / sliced_threads=0 / nr=0 / decimate=0 / interlaced=0 / constrained_intra=0 / bframes=8 / b_pyramid=2 / b_adapt=2 / b_bias=0 / direct=3 / weightb=1 / open_gop=1 / weightp=2 / keyint=250 / keyint_min=23 / scenecut=40 / intra_refresh=0 / rc=2pass / mbtree=0 / bitrate=4237 / ratetol=1.0 / qcomp=0.60 / qpmin=10 / qpmax=51 / qpstep=4 / cplxblur=20.0 / qblur=0.5 / ip_ratio=1.40 / pb_ratio=1.30 / aq=1:0.80
    Language : English
    Default : No
    Forced : No

    Audio #1
    ID : 2
    Format : AC-3
    Format/Info : Audio Coding 3
    Mode extension : CM (complete main)
    Format settings, Endianness : Big
    Codec ID : A_AC3
    Duration : 2h 8mn
    Bit rate mode : Constant
    Bit rate : 640 Kbps
    Channel(s) : 6 channels
    Channel positions : Front: L C R, Side: L R, LFE
    Sampling rate : 48.0 KHz
    Bit depth : 16 bits
    Stream size : 587 MiB (12%)
    Title : AC3 5.1 @ 640 kbps
    Language : English
    Default : Yes
    Forced : Yes

    Audio #2
    ID : 4
    Format : AC-3
    Format/Info : Audio Coding 3
    Mode extension : CM (complete main)
    Format settings, Endianness : Big
    Codec ID : A_AC3
    Duration : 2h 8mn
    Bit rate mode : Constant
    Bit rate : 640 Kbps
    Channel(s) : 6 channels
    Channel positions : Front: L C R, Side: L R, LFE
    Sampling rate : 48.0 KHz
    Bit depth : 16 bits
    Stream size : 587 MiB (12%)
    Title : AC3 - ASM
    Language : German
    Default : No
    Forced : No
    Quote Quote  
  2. I'm a MEGA Super Moderator Baldrick's Avatar
    Join Date: Aug 2000
    Location: Sweden
    Search Comp PM
    I don't think that is possible. But you can mux/add audio tracks to an avi with avimuxgui or virtualdubmod. Extract the audio from the mkv with mkvextractgui2.
    Quote Quote  
  3. Originally Posted by Baldrick View Post
    I don't think that is possible. But you can mux/add audio tracks to an avi with avimuxgui or virtualdubmod. Extract the audio from the mkv with mkvextractgui2.
    Thanks for answering. Do you know if I can at least choose which audio track to convert with Super? Because I don't see any option to do it on Super.
    Quote Quote  
  4. Member
    Join Date: Oct 2004
    Location: Freedonia
    Search Comp PM
    Xvid4PSP.

    I do not mean to offend you at all by saying this so don't get all bent out of shape as this is NOT directed at you, but Super is intended to be used by idiots. The fact that you posted here at all means you're above its intended audience. You'll probably need to find a guide on Xvid4PSP, but it should easily be able to do what you want.
    Quote Quote  
  5. VH Wanderer Ai Haibara's Avatar
    Join Date: Jan 2006
    Location: Somewhere on VideoHelp...
    Search Comp PM
    Originally Posted by jman98 View Post
    I do not mean to offend you at all by saying this so don't get all bent out of shape as this is NOT directed at you, but Super is intended to be used by idiots.
    If it's intended to be "used by idiots," why does it have such a convoluted GUI?
    Actually, I'd recommend against SUPER, these days, primarily due to the malware/spyware concerns, and that there are easier tools out there to work with.

    cbble: As far as I recall (since I haven't bothered with SUPER in quite some time), there's no way to specify which audio track you want to work with in a multiple audio-track video. It'll be easier to extract the audio tracks, as Baldrick mentioned, with something like MKVCleaver or gMKVExtractGUI (both are more recently updated than MKVExtractGUI-2), then pick which one you want and add it when you're converting the video in SUPER, or whatever converter you're using.
    If cameras add ten pounds, why would people want to eat them?
    Quote Quote