VideoHelp Forum
+ Reply to Thread
Results 1 to 12 of 12
Thread
  1. It's three time......... 3 fu**ng time!

    I try to convert a mpeg file to mp4 (using x264) and the output file it's goin completely OUT OF SYNC or the audio parts it's been picked in complety different parts respect video selection!

    I have installed XVID4PSP 5.10.330 latest build picked from this site............... i have try to convert this same source mpeg file on XP and and the first time the file it's been converted whitout problems!!

    IT's XVID4PSP not compatible in Windows 8.1 or 8 (or maybe Windows 7) ??
    Last edited by DjDiabolik; 1st Apr 2014 at 07:08.
    Quote Quote  
  2. I'm a MEGA Super Moderator Baldrick's Avatar
    Join Date: Aug 2000
    Location: Sweden
    Search Comp PM
    Try vidcoder.
    Quote Quote  
  3. Originally Posted by Baldrick View Post
    ok.... i have restarted again another convertion.

    After that try this programs.......
    Quote Quote  
  4. I have try vidcoder.......... great, it's possibly to choice a parts of video selected start and ending frame!!

    i have selected some option and started a encoded..............

    i have wait 40 minutes and when i back in front of monitor i have noticed remain time value:

    about 33 hours!!

    I have ABORTED all................ it's impossible.
    Quote Quote  
  5. Member johns0's Avatar
    Join Date: Jun 2002
    Location: canada
    Search Comp PM
    Either you have a very slow computer or somethings wrong in your encoding setup or the file has issues but we don't know any of the details since you didn't offer any.
    I think,therefore i am a hamster.
    Quote Quote  
  6. Originally Posted by johns0 View Post
    Either you have a very slow computer or somethings wrong in your encoding setup or the file has issues but we don't know any of the details since you didn't offer any.
    very slowly computer whit windows 8.1 ?!?!?!? ahaahahahahha.... are you kidding me ?

    i have posted mediainfo about the file i want to convert...... :
    Code:
    General
    ID                                       : 1 (0x1)
    Complete name                            : D:\Pugilato Campionati\full.ts
    Format                                   : MPEG-TS
    File size                                : 6.26 GiB
    Duration                                 : 1h 33mn
    Overall bit rate mode                    : Variable
    Overall bit rate                         : 9 572 Kbps
    Maximum Overall bit rate                 : 35.5 Mbps
    
    Video
    ID                                       : 4113 (0x1011)
    Menu ID                                  : 1 (0x1)
    Format                                   : MPEG Video
    Format version                           : Version 2
    Format profile                           : Main@Main
    Format settings, BVOP                    : Yes
    Format settings, Matrix                  : Custom
    Format settings, GOP                     : M=3, N=12
    Codec ID                                 : 2
    Duration                                 : 1h 33mn
    Bit rate mode                            : Variable
    Bit rate                                 : 8 841 Kbps
    Maximum bit rate                         : 9 100 Kbps
    Width                                    : 720 pixels
    Height                                   : 576 pixels
    Display aspect ratio                     : 16:9
    Frame rate                               : 25.000 fps
    Standard                                 : PAL
    Color space                              : YUV
    Chroma subsampling                       : 4:2:0
    Bit depth                                : 8 bits
    Scan type                                : Interlaced
    Scan order                               : Top Field First
    Compression mode                         : Lossy
    Bits/(Pixel*Frame)                       : 0.853
    Time code of first frame                 : 00:00:00:00
    Time code source                         : Group of pictures header
    Stream size                              : 5.78 GiB (92%)
    
    Audio
    ID                                       : 4352 (0x1100)
    Menu ID                                  : 1 (0x1)
    Format                                   : AC-3
    Format/Info                              : Audio Coding 3
    Mode extension                           : CM (complete main)
    Format settings, Endianness              : Big
    Codec ID                                 : 129
    Duration                                 : 1h 33mn
    Bit rate mode                            : Constant
    Bit rate                                 : 256 Kbps
    Channel(s)                               : 2 channels
    Channel positions                        : Front: L R
    Sampling rate                            : 48.0 KHz
    Bit depth                                : 16 bits
    Compression mode                         : Lossy
    Delay relative to video                  : -80ms
    Stream size                              : 172 MiB (3%)
    The Computer it's a newest notebook......8GB di RAM etc etc....
    Quote Quote  
  7. Member
    Join Date: Jun 2012
    Location: USA
    Search Comp PM
    Originally Posted by DjDiabolik View Post
    very slowly computer whit windows 8.1 ?!?!?!? ahaahahahahha.... are you kidding me ?

    The Computer it's a newest notebook......8GB di RAM etc etc....
    Windows 8 will run on a tablet, it doesn't say crap about the power of your setup. What about processor, hard drives, etc? That looks like an ordinary DVD spec file. Could be your computer's getting hung up on copy protection.
    Quote Quote  
  8. Originally Posted by smrpix View Post
    Originally Posted by DjDiabolik View Post
    very slowly computer whit windows 8.1 ?!?!?!? ahaahahahahha.... are you kidding me ?

    The Computer it's a newest notebook......8GB di RAM etc etc....
    Windows 8 will run on a tablet, it doesn't say crap about the power of your setup. What about processor, hard drives, etc? That looks like an ordinary DVD spec file. Could be your computer's getting hung up on copy protection.
    no... it's no copy protection problems.

    The source of file it's a sony videocamera.......... inside it there is 5 mpeg file.... and i have join it using tsMuxeR_2.6.12 to obtain this full.ts file.

    At this point i need to extract from this a clip about 29minutes........... but whit xvid4psp i already says i obtain a out of sync... and using vidcoder i obtain this very long time to enconding.

    I have also try to cut the full.mpeg using avidemux....... but i can't because i obtain ever a message from avidemux say to me i can't use the copy function because the cut point it's not on keyframe but i have set this correctly...
    Quote Quote  
  9. Member hech54's Avatar
    Join Date: Jul 2001
    Location: Yank in Europe
    Search Comp PM
    Originally Posted by DjDiabolik View Post

    The source of file it's a sony videocamera.......... inside it there is 5 mpeg file.... and i have join it using tsMuxeR_2.6.12 to obtain this full.ts file.
    A Sony video camera that records in MPEG2 with AC3 audio?
    Which one?
    Quote Quote  
  10. Originally Posted by hech54 View Post
    Originally Posted by DjDiabolik View Post

    The source of file it's a sony videocamera.......... inside it there is 5 mpeg file.... and i have join it using tsMuxeR_2.6.12 to obtain this full.ts file.
    A Sony video camera that records in MPEG2 with AC3 audio?
    Which one?
    it's a "oldest" DCR-SX22E:
    http://www.sony.it/support/it/product/DCR-SX22E

    *EDIT*
    this is mediainfo of a source file copied from videocamera... this is first parts of five:
    Code:
    General
    Complete name                            : E:\TLB_Giornata1\Source\M2U00004.MPG
    Format                                   : MPEG-PS
    File size                                : 1.97 GiB
    Duration                                 : 29mn 31s
    Overall bit rate mode                    : Variable
    Overall bit rate                         : 9 574 Kbps
    
    Video
    ID                                       : 224 (0xE0)
    Format                                   : MPEG Video
    Format version                           : Version 2
    Format profile                           : Main@Main
    Format settings, BVOP                    : Yes
    Format settings, Matrix                  : Custom
    Format settings, GOP                     : M=3, N=12
    Duration                                 : 29mn 31s
    Bit rate mode                            : Variable
    Bit rate                                 : 9 100 Kbps
    Width                                    : 720 pixels
    Height                                   : 576 pixels
    Display aspect ratio                     : 16:9
    Frame rate                               : 25.000 fps
    Standard                                 : PAL
    Color space                              : YUV
    Chroma subsampling                       : 4:2:0
    Bit depth                                : 8 bits
    Scan type                                : Interlaced
    Scan order                               : Top Field First
    Compression mode                         : Lossy
    Bits/(Pixel*Frame)                       : 0.878
    Time code of first frame                 : 00:00:00:00
    Time code source                         : Group of pictures header
    Stream size                              : 1.88 GiB (95%)
    
    Audio
    ID                                       : 189 (0xBD)-128 (0x80)
    Format                                   : AC-3
    Format/Info                              : Audio Coding 3
    Mode extension                           : CM (complete main)
    Format settings, Endianness              : Big
    Muxing mode                              : DVD-Video
    Duration                                 : 29mn 31s
    Bit rate mode                            : Constant
    Bit rate                                 : 256 Kbps
    Channel(s)                               : 2 channels
    Channel positions                        : Front: L R
    Sampling rate                            : 48.0 KHz
    Bit depth                                : 16 bits
    Compression mode                         : Lossy
    Delay relative to video                  : -80ms
    Stream size                              : 54.0 MiB (3%)
    Last edited by DjDiabolik; 4th Apr 2014 at 07:08.
    Quote Quote  
  11. I have installed VidCoder on another PC whit Windows XP SP3:
    Only whit the programs started........whitout any file loaded inside or project encoded i continue to listen from my HD a "tick" "tick" "tick" noise like infinite spin off.

    For stop this noise i need to close VidCoder........................
    Quote Quote  
  12. I need some another BIG help to encode this file:
    Code:
    General
    Complete name                            : E:\0504-Esordienti\karim.MPG
    Format                                   : MPEG-PS
    File size                                : 575 MiB
    Duration                                 : 8mn 29s
    Overall bit rate mode                    : Variable
    Overall bit rate                         : 9 467 Kbps
    
    Video
    ID                                       : 224 (0xE0)
    Format                                   : MPEG Video
    Format version                           : Version 2
    Format profile                           : Main@Main
    Format settings, BVOP                    : Yes
    Format settings, Matrix                  : Custom
    Format settings, GOP                     : M=3, N=12
    Duration                                 : 8mn 29s
    Bit rate mode                            : Variable
    Bit rate                                 : 9 100 Kbps
    Width                                    : 720 pixels
    Height                                   : 576 pixels
    Display aspect ratio                     : 16:9
    Frame rate                               : 25.000 fps
    Standard                                 : PAL
    Color space                              : YUV
    Chroma subsampling                       : 4:2:0
    Bit depth                                : 8 bits
    Scan type                                : Interlaced
    Scan order                               : Top Field First
    Compression mode                         : Lossy
    Bits/(Pixel*Frame)                       : 0.878
    Time code of first frame                 : 00:00:00:00
    Time code source                         : Group of pictures header
    Stream size                              : 548 MiB (95%)
    
    Audio
    ID                                       : 189 (0xBD)-128 (0x80)
    Format                                   : AC-3
    Format/Info                              : Audio Coding 3
    Mode extension                           : CM (complete main)
    Format settings, Endianness              : Big
    Muxing mode                              : DVD-Video
    Duration                                 : 8mn 29s
    Bit rate mode                            : Constant
    Bit rate                                 : 256 Kbps
    Channel(s)                               : 2 channels
    Channel positions                        : Front: L R
    Sampling rate                            : 48.0 KHz
    Bit depth                                : 16 bits
    Compression mode                         : Lossy
    Delay relative to video                  : -16ms
    Stream size                              : 15.5 MiB (3%)
    
    Menu
    On XP Sp3 i have used XVID4PSP 5.10.330...... i don't know what's the BEST PROFILE i can use to obtain a good quality output file and i'm used google to found some information about it.
    I have found this old guide:
    http://www.anythingbutipod.com/forum/showthread.php?t=62635&page=2

    There is some pics about a custom profile...... i have apply some changes and saving a newest profile....... and after about 30minutes i have obtain this:
    Code:
    General
    Complete name                            : E:\0504-Esordienti\karim.mp4
    Format                                   : MPEG-4
    Format profile                           : Base Media
    Codec ID                                 : isom
    File size                                : 99.0 MiB
    Duration                                 : 8mn 29s
    Overall bit rate mode                    : Variable
    Overall bit rate                         : 1 630 Kbps
    Encoded date                             : UTC 2014-04-06 00:50:36
    Tagged date                              : UTC 2014-04-06 00:50:36
    
    Video
    ID                                       : 1
    Format                                   : AVC
    Format/Info                              : Advanced Video Codec
    Format profile                           : Main@L3.1
    Format settings, CABAC                   : No
    Format settings, ReFrames                : 1 frame
    Codec ID                                 : avc1
    Codec ID/Info                            : Advanced Video Coding
    Duration                                 : 8mn 29s
    Bit rate                                 : 1 500 Kbps
    Maximum bit rate                         : 2 307 Kbps
    Width                                    : 608 pixels
    Height                                   : 344 pixels
    Display aspect ratio                     : 16:9
    Frame rate mode                          : Constant
    Frame rate                               : 25.000 fps
    Color space                              : YUV
    Chroma subsampling                       : 4:2:0
    Bit depth                                : 8 bits
    Scan type                                : Progressive
    Bits/(Pixel*Frame)                       : 0.287
    Stream size                              : 91.1 MiB (92%)
    Writing library                          : x264 core 130 r2273 b3065e6
    Encoding settings                        : cabac=0 / ref=1 / deblock=1:-2:-1 / analyse=0x1:0x131 / me=umh / subme=6 / psy=1 / psy_rd=1.00:0.20 / mixed_ref=0 / me_range=16 / chroma_me=1 / trellis=0 / 8x8dct=0 / cqm=0 / deadzone=21,11 / fast_pskip=1 / chroma_qp_offset=-2 / threads=3 / lookahead_threads=1 / sliced_threads=0 / nr=0 / decimate=1 / interlaced=0 / bluray_compat=0 / constrained_intra=0 / bframes=0 / weightp=2 / keyint=250 / keyint_min=25 / scenecut=40 / intra_refresh=0 / rc_lookahead=60 / rc=2pass / mbtree=1 / bitrate=1500 / ratetol=1.0 / qcomp=0.60 / qpmin=0 / qpmax=69 / qpstep=4 / cplxblur=20.0 / qblur=0.5 / ip_ratio=1.40 / aq=1:1.00
    Encoded date                             : UTC 2014-04-06 00:50:36
    Tagged date                              : UTC 2014-04-06 00:50:40
    
    Audio
    ID                                       : 2
    Format                                   : AAC
    Format/Info                              : Advanced Audio Codec
    Format profile                           : LC
    Codec ID                                 : 40
    Duration                                 : 8mn 25s
    Bit rate mode                            : Variable
    Bit rate                                 : 128 Kbps
    Maximum bit rate                         : 131 Kbps
    Channel(s)                               : 2 channels
    Channel positions                        : Front: L R
    Sampling rate                            : 48.0 KHz
    Compression mode                         : Lossy
    Stream size                              : 7.71 MiB (8%)
    Encoded date                             : UTC 2014-04-06 00:50:39
    Tagged date                              : UTC 2014-04-06 00:50:40
    LOOK THE AUDIO DURATION !!!!!!!!! BECAUSE....... i'm ask because it's 4 seconds less respect the video tracks !!!!?!?!?

    Oobvious i can't conserve this NUKED file!! I chose to change programs and pass to use VIDCODER latest beta on Windows 7 x64........ after another 25minutes i have obtain this:
    Code:
    General
    Complete name                            : E:\0504-Esordienti\karim2.mp4
    Format                                   : MPEG-4
    Format profile                           : Base Media
    Codec ID                                 : isom
    File size                                : 99.1 MiB
    Duration                                 : 8mn 29s
    Overall bit rate mode                    : Variable
    Overall bit rate                         : 1 633 Kbps
    Encoded date                             : UTC 2014-04-06 01:49:38
    Tagged date                              : UTC 2014-04-06 01:49:38
    
    Video
    ID                                       : 1
    Format                                   : AVC
    Format/Info                              : Advanced Video Codec
    Format profile                           : High@L3.1
    Format settings, CABAC                   : No
    Format settings, ReFrames                : 1 frame
    Codec ID                                 : avc1
    Codec ID/Info                            : Advanced Video Coding
    Duration                                 : 8mn 29s
    Bit rate                                 : 1 500 Kbps
    Maximum bit rate                         : 2 502 Kbps
    Width                                    : 600 pixels
    Height                                   : 480 pixels
    Display aspect ratio                     : 16:9
    Original display aspect ratio            : 16:9
    Frame rate mode                          : Constant
    Frame rate                               : 25.000 fps
    Color space                              : YUV
    Chroma subsampling                       : 4:2:0
    Bit depth                                : 8 bits
    Scan type                                : Progressive
    Bits/(Pixel*Frame)                       : 0.208
    Stream size                              : 91.1 MiB (92%)
    Writing library                          : x264 core 142 r2389 956c8d8
    Encoding settings                        : cabac=0 / ref=1 / deblock=1:0:0 / analyse=0x3:0x133 / me=umh / subme=6 / psy=1 / psy_rd=1.00:0.00 / mixed_ref=0 / me_range=16 / chroma_me=1 / trellis=0 / 8x8dct=1 / cqm=0 / deadzone=21,11 / fast_pskip=1 / chroma_qp_offset=-2 / threads=3 / lookahead_threads=1 / sliced_threads=0 / nr=0 / decimate=1 / interlaced=0 / bluray_compat=0 / constrained_intra=0 / bframes=0 / weightp=2 / keyint=250 / keyint_min=25 / scenecut=40 / intra_refresh=0 / rc_lookahead=60 / rc=2pass / mbtree=1 / bitrate=1500 / ratetol=1.0 / qcomp=0.60 / qpmin=0 / qpmax=69 / qpstep=4 / cplxblur=20.0 / qblur=0.5 / vbv_maxrate=17500 / vbv_bufsize=17500 / nal_hrd=none / filler=0 / ip_ratio=1.40 / aq=1:1.00
    Encoded date                             : UTC 2014-04-06 01:49:38
    Tagged date                              : UTC 2014-04-06 01:49:41
    Color primaries                          : BT.601 PAL
    Transfer characteristics                 : BT.709
    Matrix coefficients                      : BT.601
    
    Audio
    ID                                       : 2
    Format                                   : AAC
    Format/Info                              : Advanced Audio Codec
    Format profile                           : LC
    Codec ID                                 : 40
    Duration                                 : 8mn 29s
    Bit rate mode                            : Variable
    Bit rate                                 : 132 Kbps
    Maximum bit rate                         : 166 Kbps
    Channel(s)                               : 2 channels
    Channel positions                        : Front: L R
    Sampling rate                            : 48.0 KHz
    Compression mode                         : Lossy
    Stream size                              : 7.92 MiB (8%)
    Encoded date                             : UTC 2014-04-06 01:49:41
    Tagged date                              : UTC 2014-04-06 01:49:41
    Now the audio tracks it's same lenght of video tracks...... but every 8 seconds it's present a little jump! like a few seconds muted or like some microseconds shut off. It's very frustrating because the source MPG not lacking in the audio track!!

    How i can use ?!??!?!?
    Where programs it's better to use ?!!!?
    Where programs can garantee the best result and the best performance ?!!?

    I thinks it's useless to be opened a newest thread........ i hope to be obtain support here.............

    Thanks in advance......
    Quote Quote  



Similar Threads