VideoHelp Forum
+ Reply to Thread
Results 1 to 9 of 9
Thread
  1. I have 5 MPEG-PS file..... i can post the first file MediaInfo:
    Code:
    General
    Complete name                            : E:\TLB_Giornata1\Source\M2U00004.MPG
    Format                                   : MPEG-PS
    File size                                : 1.97 GiB
    Duration                                 : 29mn 31s
    Overall bit rate mode                    : Variable
    Overall bit rate                         : 9 574 Kbps
    
    Video
    ID                                       : 224 (0xE0)
    Format                                   : MPEG Video
    Format version                           : Version 2
    Format profile                           : Main@Main
    Format settings, BVOP                    : Yes
    Format settings, Matrix                  : Custom
    Format settings, GOP                     : M=3, N=12
    Duration                                 : 29mn 31s
    Bit rate mode                            : Variable
    Bit rate                                 : 9 100 Kbps
    Width                                    : 720 pixels
    Height                                   : 576 pixels
    Display aspect ratio                     : 16:9
    Frame rate                               : 25.000 fps
    Standard                                 : PAL
    Color space                              : YUV
    Chroma subsampling                       : 4:2:0
    Bit depth                                : 8 bits
    Scan type                                : Interlaced
    Scan order                               : Top Field First
    Compression mode                         : Lossy
    Bits/(Pixel*Frame)                       : 0.878
    Time code of first frame                 : 00:00:00:00
    Time code source                         : Group of pictures header
    Stream size                              : 1.88 GiB (95%)
    
    Audio
    ID                                       : 189 (0xBD)-128 (0x80)
    Format                                   : AC-3
    Format/Info                              : Audio Coding 3
    Mode extension                           : CM (complete main)
    Format settings, Endianness              : Big
    Muxing mode                              : DVD-Video
    Duration                                 : 29mn 31s
    Bit rate mode                            : Constant
    Bit rate                                 : 256 Kbps
    Channel(s)                               : 2 channels
    Channel positions                        : Front: L R
    Sampling rate                            : 48.0 KHz
    Bit depth                                : 16 bits
    Compression mode                         : Lossy
    Delay relative to video                  : -80ms
    Stream size                              : 54.0 MiB (3%)
    The other 4 file it's named xxx5,6,7 and xxxx8.MPG!

    For now i need to join in a single and large MPG file......... i try to use latest Avidemux whit "Copy" setted for video and audio but it's very slowly, about 1 hours and 30 minutes !!

    I have also tryed to use "COPY /B xxx4.MPG + ecc. ecc. full.MPG" from prompt of dos....... it's working but after that the full.MPG appears corrupted and it's been reported whit wrong duration (i thinks it's not been indexing correctly)!

    After i obtain a correct MPG file...... i need to reopened it...... cutting some parts....... and after that i need to converting it to x264 or xvid...... for that i can use xvid4psp (or you can suggest better programs ?), but this is another step
    For now help me to join this five mpeg file

    Thanks in advance........
    Quote Quote  
  2. I'm a MEGA Super Moderator Baldrick's Avatar
    Join Date: Aug 2000
    Location: Sweden
    Search Comp PM
    I don't see why avidemux is so slow. It doesn't do any video conversion when you are using copy mode. Are you exportíng to mpeg ps ?

    You could also try join with mpg2cut2, open all files and save as a single mpg.


    Or try edit and convert to h264 directly in avidemux. OPen and append all mpgs. Set start and stop and delete the parts you don't want. Under video choose mpeg-4 avc/h264/x264. Save as a mkv or mp4.
    Quote Quote  
  3. I don't know......... i also have selected "Copy" on video and audio........ and i have selected Mpeg-PS... after that i have added all five mpeg file and start to save on a single file.

    After this the remain time it's been setted to 1 hours and 30 minutes...... ok my pc it's not the BEST PC over the world but it's possible to mouch all this time only for join 5 files ??

    Otherwise this time i have waited........... and obtain this:
    Code:
    General
    Complete name                            : E:\TLB_Giornata1\full.MPG
    Format                                   : MPEG-PS
    File size                                : 6.19 GiB
    Duration                                 : 1h 33mn
    Overall bit rate mode                    : Variable
    Overall bit rate                         : 9 440 Kbps
    
    Video
    ID                                       : 224 (0xE0)
    Format                                   : MPEG Video
    Format version                           : Version 2
    Format profile                           : Main@Main
    Format settings, BVOP                    : Yes
    Format settings, Matrix                  : Custom
    Format settings, GOP                     : M=3, N=12
    Duration                                 : 1h 33mn
    Bit rate mode                            : Variable
    Bit rate                                 : 8 996 Kbps
    Maximum bit rate                         : 9 100 Kbps
    Width                                    : 720 pixels
    Height                                   : 576 pixels
    Display aspect ratio                     : 16:9
    Frame rate                               : 25.000 fps
    Standard                                 : PAL
    Color space                              : YUV
    Chroma subsampling                       : 4:2:0
    Bit depth                                : 8 bits
    Scan type                                : Interlaced
    Scan order                               : Top Field First
    Compression mode                         : Lossy
    Bits/(Pixel*Frame)                       : 0.868
    Time code of first frame                 : 00:00:00:00
    Time code source                         : Group of pictures header
    Stream size                              : 5.90 GiB (95%)
    
    Audio
    ID                                       : 189 (0xBD)-128 (0x80)
    Format                                   : AC-3
    Format/Info                              : Audio Coding 3
    Mode extension                           : CM (complete main)
    Format settings, Endianness              : Big
    Muxing mode                              : DVD-Video
    Duration                                 : 1h 33mn
    Bit rate mode                            : Constant
    Bit rate                                 : 256 Kbps
    Channel(s)                               : 2 channels
    Channel positions                        : Front: L R
    Sampling rate                            : 48.0 KHz
    Bit depth                                : 16 bits
    Compression mode                         : Lossy
    Delay relative to video                  : -16ms
    Stream size                              : 172 MiB (3%)
    
    Menu
    Now it's all reported correctly.... the duration.... and the size it's correct...... after that i have extracted from this this:
    Code:
    General
    Complete name                            : E:\TLB_Giornata1\Parts_cutted.MPG
    Format                                   : MPEG-PS
    File size                                : 1.95 GiB
    Duration                                 : 29mn 32s
    Overall bit rate mode                    : Variable
    Overall bit rate                         : 9 426 Kbps
    
    Video
    ID                                       : 224 (0xE0)
    Format                                   : MPEG Video
    Format version                           : Version 2
    Format profile                           : Main@Main
    Format settings, BVOP                    : Yes
    Format settings, Matrix                  : Custom
    Format settings, GOP                     : M=3, N=12
    Duration                                 : 29mn 32s
    Bit rate mode                            : Variable
    Bit rate                                 : 8 983 Kbps
    Maximum bit rate                         : 9 100 Kbps
    Width                                    : 720 pixels
    Height                                   : 576 pixels
    Display aspect ratio                     : 16:9
    Frame rate                               : 25.000 fps
    Standard                                 : PAL
    Color space                              : YUV
    Chroma subsampling                       : 4:2:0
    Bit depth                                : 8 bits
    Scan type                                : Interlaced
    Scan order                               : Top Field First
    Compression mode                         : Lossy
    Bits/(Pixel*Frame)                       : 0.866
    Time code of first frame                 : 00:39:45:18
    Time code source                         : Group of pictures header
    Stream size                              : 1.85 GiB (95%)
    
    Audio
    ID                                       : 189 (0xBD)-128 (0x80)
    Format                                   : AC-3
    Format/Info                              : Audio Coding 3
    Mode extension                           : CM (complete main)
    Format settings, Endianness              : Big
    Muxing mode                              : DVD-Video
    Duration                                 : 29mn 32s
    Bit rate mode                            : Constant
    Bit rate                                 : 256 Kbps
    Channel(s)                               : 2 channels
    Channel positions                        : Front: L R
    Sampling rate                            : 48.0 KHz
    Bit depth                                : 16 bits
    Compression mode                         : Lossy
    Delay relative to video                  : 16ms
    Stream size                              : 54.1 MiB (3%)
    
    Menu
    Yeah... i have used Avidemux all this time... only for cutting this parts from full.mpeg about 40 minutes!!!

    Now i need only to choose another SIMPLY programs from obtain a MP4/x264 files..... i know Xvid4PSP and i have started a conversion but i thinks i cannot have set all correctly and i thinks i obtain a SHITTY output file.
    You can suggest to me another solution ?? You thinks i can use directly Avidemux for convert this to x264 ?? I need to obtain a file executable from all stand alone player..... i need 4 example to obtain a file using a lower profile than High@4.0 (all file i played it's high@3.1), can you suggest to me how i can use ? I'm not expert in convertion setup


    *EDIT*
    Ah.. because to obtain cutted.mpeg i chose to obtain full.mpg: whit full.mpeg i can make a DVD whit dvdstyler and this cutted.mpeg it's been converted and posted on youtube or my facebook page.....


    *EDIT 2*
    Using XVID4PSP........ converted cutted_parts.mpg to convert.mp4! Shitty result:
    Code:
    General
    Complete name                            : E:\TLB_Giornata1\Perugini.mp4
    Format                                   : MPEG-4
    Format profile                           : Base Media
    Codec ID                                 : isom
    File size                                : 50.5 MiB
    Duration                                 : 29mn 27s
    Overall bit rate mode                    : Variable
    Overall bit rate                         : 240 Kbps
    Encoded date                             : UTC 2014-03-31 15:38:40
    Tagged date                              : UTC 2014-03-31 15:38:40
    
    Video
    ID                                       : 1
    Format                                   : AVC
    Format/Info                              : Advanced Video Codec
    Format profile                           : High@L3.1
    Format settings, CABAC                   : Yes
    Format settings, ReFrames                : 4 frames
    Codec ID                                 : avc1
    Codec ID/Info                            : Advanced Video Coding
    Duration                                 : 29mn 27s
    Bit rate                                 : 174 Kbps
    Maximum bit rate                         : 449 Kbps
    Width                                    : 600 pixels
    Height                                   : 480 pixels
    Display aspect ratio                     : 5:4
    Frame rate mode                          : Constant
    Frame rate                               : 25.000 fps
    Color space                              : YUV
    Chroma subsampling                       : 4:2:0
    Bit depth                                : 8 bits
    Scan type                                : Progressive
    Bits/(Pixel*Frame)                       : 0.024
    Stream size                              : 36.7 MiB (73%)
    Writing library                          : x264 core 130 r2273 b3065e6
    Encoding settings                        : cabac=1 / ref=2 / deblock=1:-2:-1 / analyse=0x3:0x113 / me=hex / subme=6 / psy=1 / psy_rd=1.00:0.20 / mixed_ref=1 / me_range=16 / chroma_me=1 / trellis=1 / 8x8dct=1 / cqm=0 / deadzone=21,11 / fast_pskip=1 / chroma_qp_offset=-3 / threads=3 / lookahead_threads=1 / sliced_threads=0 / nr=0 / decimate=0 / interlaced=0 / bluray_compat=0 / constrained_intra=0 / bframes=3 / b_pyramid=2 / b_adapt=1 / b_bias=0 / direct=3 / weightb=1 / open_gop=0 / weightp=1 / keyint=250 / keyint_min=25 / scenecut=40 / intra_refresh=0 / rc_lookahead=30 / rc=2pass / mbtree=1 / bitrate=174 / ratetol=1.0 / qcomp=0.60 / qpmin=0 / qpmax=69 / qpstep=4 / cplxblur=20.0 / qblur=0.5 / ip_ratio=1.40 / aq=1:1.00
    Encoded date                             : UTC 2014-03-31 15:38:40
    Tagged date                              : UTC 2014-03-31 15:38:45
    
    Audio
    ID                                       : 2
    Format                                   : AAC
    Format/Info                              : Advanced Audio Codec
    Format profile                           : LC
    Codec ID                                 : 40
    Duration                                 : 29mn 14s
    Bit rate mode                            : Variable
    Bit rate                                 : 61.9 Kbps
    Maximum bit rate                         : 65.2 Kbps
    Channel(s)                               : 2 channels
    Channel positions                        : Front: L R
    Sampling rate                            : 48.0 KHz
    Compression mode                         : Lossy
    Stream size                              : 13.0 MiB (26%)
    Encoded date                             : UTC 2014-03-31 15:38:43
    Tagged date                              : UTC 2014-03-31 15:38:45
    This converted file it's not in 16:9 Shitty quality....... and i need to restart all over again......
    Last edited by DjDiabolik; 31st Mar 2014 at 11:41.
    Quote Quote  
  4. Sorry for double reply.... but i have used again XVID4PSP for rencode the cutted.MPG file!!

    This time i obtain a better file....... about 250MB whit bitrate about 1000Kb/s........ great quality!!! but i have notify the Audio/video tracks goes OUT OF SYNC!!!!!

    It's unbelievable!!! i spent 5 hours and i obtain nothing...................

    *EDIT*
    Now stay to retry again to reconde using Avidemux......... i need to wait again about 50minutes......


    *EDIT 2*
    DAMN!!! AVIDEMUX failed to ASPECT RATIO and i have correctly setted!!
    Otherwise AVIDEMUX fail to encode audio track............... every 10 seconds in audio tracks has been inserted a clip like missing part or distortion!!

    At this point i don't know another programs for coverting the source MPEG file...........
    Last edited by DjDiabolik; 31st Mar 2014 at 15:31.
    Quote Quote  
  5. AGAIN DAMN......... Using Mp2cut2 for join all source 5 mpeg file........ again obtain file whit WRONG DURATION!!!

    Code:
    General
    Complete name                            : E:\TLB_Giornata1\full2.MPG
    Format                                   : MPEG-PS
    File size                                : 6.26 GiB
    Duration                                 : 19s 24ms
    Overall bit rate mode                    : Variable
    Overall bit rate                         : 2 828 Mbps
    
    Video
    ID                                       : 224 (0xE0)
    Format                                   : MPEG Video
    Format version                           : Version 2
    Format profile                           : Main@Main
    Format settings, BVOP                    : Yes
    Format settings, Matrix                  : Custom
    Format settings, GOP                     : M=3, N=12
    Duration                                 : 19s 8ms
    Bit rate mode                            : Variable
    Bit rate                                 : 2 771 Mbps
    Maximum bit rate                         : 9 100 Kbps
    Width                                    : 720 pixels
    Height                                   : 576 pixels
    Display aspect ratio                     : 16:9
    Frame rate                               : 25.000 fps
    Standard                                 : PAL
    Color space                              : YUV
    Chroma subsampling                       : 4:2:0
    Bit depth                                : 8 bits
    Scan type                                : Interlaced
    Scan order                               : Top Field First
    Compression mode                         : Lossy
    Bits/(Pixel*Frame)                       : 267.275
    Time code of first frame                 : 00:00:00:00
    Time code source                         : Group of pictures header
    Stream size                              : 6.13 GiB (98%)
    
    Audio
    ID                                       : 189 (0xBD)-128 (0x80)
    Format                                   : AC-3
    Format/Info                              : Audio Coding 3
    Mode extension                           : CM (complete main)
    Format settings, Endianness              : Big
    Muxing mode                              : DVD-Video
    Duration                                 : 19s 24ms
    Bit rate mode                            : Constant
    Bit rate                                 : 256 Kbps
    Channel(s)                               : 2 channels
    Channel positions                        : Front: L R
    Sampling rate                            : 48.0 KHz
    Bit depth                                : 16 bits
    Compression mode                         : Lossy
    Delay relative to video                  : -16ms
    Stream size                              : 595 KiB (0%)
    Damn............ encoding this ****i*ng 5 mpeg it's impossible!
    Quote Quote  
  6. Ok OK Ok..... i have restart all over again.... calm down and please help me:

    1) I have reconnect my Videocamera on USB..... copied on My HD the 5 mpeg inside SD. The Mediainfo about first file it's in my first post!


    2) Now i have using TsMuxer 2.6.12 for obtain, i hope, correctly full show in single and large file:
    Code:
    General
    ID                                       : 1 (0x1)
    Complete name                            : E:\TLB_Giornata1\full.ts
    Format                                   : MPEG-TS
    File size                                : 6.26 GiB
    Duration                                 : 1h 33mn
    Overall bit rate mode                    : Variable
    Overall bit rate                         : 9 572 Kbps
    Maximum Overall bit rate                 : 35.5 Mbps
    
    Video
    ID                                       : 4113 (0x1011)
    Menu ID                                  : 1 (0x1)
    Format                                   : MPEG Video
    Format version                           : Version 2
    Format profile                           : Main@Main
    Format settings, BVOP                    : Yes
    Format settings, Matrix                  : Custom
    Format settings, GOP                     : M=3, N=12
    Codec ID                                 : 2
    Duration                                 : 1h 33mn
    Bit rate mode                            : Variable
    Bit rate                                 : 8 841 Kbps
    Maximum bit rate                         : 9 100 Kbps
    Width                                    : 720 pixels
    Height                                   : 576 pixels
    Display aspect ratio                     : 16:9
    Frame rate                               : 25.000 fps
    Standard                                 : PAL
    Color space                              : YUV
    Chroma subsampling                       : 4:2:0
    Bit depth                                : 8 bits
    Scan type                                : Interlaced
    Scan order                               : Top Field First
    Compression mode                         : Lossy
    Bits/(Pixel*Frame)                       : 0.853
    Time code of first frame                 : 00:00:00:00
    Time code source                         : Group of pictures header
    Stream size                              : 5.78 GiB (92%)
    
    Audio
    ID                                       : 4352 (0x1100)
    Menu ID                                  : 1 (0x1)
    Format                                   : AC-3
    Format/Info                              : Audio Coding 3
    Mode extension                           : CM (complete main)
    Format settings, Endianness              : Big
    Codec ID                                 : 129
    Duration                                 : 1h 33mn
    Bit rate mode                            : Constant
    Bit rate                                 : 256 Kbps
    Channel(s)                               : 2 channels
    Channel positions                        : Front: L R
    Sampling rate                            : 48.0 KHz
    Bit depth                                : 16 bits
    Compression mode                         : Lossy
    Delay relative to video                  : -80ms
    Stream size                              : 172 MiB (3%)
    Now....... from this i need to CUTTED some parts............... i have search over internet...... i thinks the best choice it's using Avidemux.
    Yeah...... i have downloaded the latest official 2.6.8 and installed on a Windows 8.1...................... i have selected copy for audio and video...... cutted useless parts........... and......................... I CAN'T SAVE THIS SELECTION!

    I have opened a thread on official forum to find support:
    http://avidemux.org/smuf/index.php?topic=16168.0

    And this the error i continue to obtain:



    It's very strange.... i have try everything for editing and converting this file...........
    Quote Quote  
  7. I'm a MEGA Super Moderator Baldrick's Avatar
    Join Date: Aug 2000
    Location: Sweden
    Search Comp PM
    Can you please stop post same questions everywhere.

    I removed your other posts. Just use this thread.
    Quote Quote  
  8. I'm a MEGA Super Moderator Baldrick's Avatar
    Join Date: Aug 2000
    Location: Sweden
    Search Comp PM
    Have you tried used a video codec? like mpeg4 h264/avc.

    Because you can't cut exactly if you use copy mode. As it says.
    Quote Quote  
  9. Originally Posted by Baldrick View Post
    Have you tried used a video codec? like mpeg4 h264/avc.

    Because you can't cut exactly if you use copy mode. As it says.
    Usually i use K-Lite Media Codec MEGA on my pc........... it's ok ?

    Really ?? it's only problems whit codec ?? And it's not problems of programs i choose to use unitl now ?



    Otherwise sorry for croosposting..... but i have try to search over the forum before to obtain some reply and i have found so many other thread like my similar problems.........
    Quote Quote  



Similar Threads