VideoHelp Forum
+ Reply to Thread
Results 1 to 8 of 8
Thread
  1. Hello how are you all doing? I have a FLV file and I would like to know what would be a good preset so I won't lose quality when burning on a disc. Thanks
    Quote Quote  
  2. I'm a MEGA Super Moderator Baldrick's Avatar
    Join Date: Aug 2000
    Location: Sweden
    Search Comp PM
    Just burn it?

    Or do you want to convert it to dvd-video?

    Or avi divx/xvid for dvd players?
    Quote Quote  
  3. Convert it to DVD video and also avi
    Quote Quote  
  4. For video-DVD: Use AVStoDVD, QtlMovie (if you need hardcoded subtitles with nicer fonts) or DVDStyler (if you need complex navigation/menus).
    For AVI: In MediaCoder select AVI as the container on the "Container" tab. That' s pretty much all that can be said with the info given.

    A shot could be: On the "Video" tab select "Xvid" as format, "2-pass" as "Rate mode" and a "Video Bitrate" of 2500 kbps. On the "Audio" tab select "LC-AAC" as the "Format", "Rate Mode" as "CBR" and "192 kbps". Leave the "Picture" tab unchanged. On the "Time" tab select a 1 min clip for test.

    But why AVI? and why MediaCoder?
    Quote Quote  
  5. What's the best program for FLV files?
    Quote Quote  
  6. Here is the video info:

    General
    Unique ID : 319015950201201109371774215173350240093 (0xF0003CB4172FB4BA92D45869944E2F5D)
    Complete name : C:\Users\WJL\Downloads\WWE Raw 6th January 2003 (Full Show) - YouTube.flv
    Format : WebM
    Format version : Version 2
    File size : 591 MiB
    Duration : 1h 37mn
    Overall bit rate mode : Variable
    Overall bit rate : 845 Kbps
    Writing application : Google
    Writing library : Google

    Video
    ID : 1
    Format : VP8
    Codec ID : V_VP8
    Duration : 1h 37mn
    Bit rate : 675 Kbps
    Width : 480 pixels
    Height : 360 pixels
    Display aspect ratio : 4:3
    Frame rate mode : Constant
    Frame rate : 29.970 fps
    Compression mode : Lossy
    Bits/(Pixel*Frame) : 0.130
    Stream size : 472 MiB (80%)
    Default : Yes
    Forced : No

    Audio
    ID : 2
    Format : Vorbis
    Format settings, Floor : 1
    Codec ID : A_VORBIS
    Duration : 1h 37mn
    Bit rate mode : Variable
    Bit rate : 128 Kbps
    Channel count : 2 channels
    Sampling rate : 44.1 KHz
    Compression mode : Lossy
    Delay relative to video : -25ms
    Stream size : 89.5 MiB (15%)
    Default : Yes
    Forced : No
    Writing application : Google
    Quote Quote  
  7. I'm a MEGA Super Moderator Baldrick's Avatar
    Join Date: Aug 2000
    Location: Sweden
    Search Comp PM
    Wait a couple of days before you bump a thread.

    Reconverting crappy flv is nothing we spend that much time find best settings for. Just try default settings in avstodvd for dvd and mediacoder or xvid4psp for avi divx/xvid.
    Quote Quote  



Similar Threads