VideoHelp Forum
+ Reply to Thread
Results 1 to 5 of 5
Thread
  1. I got a bad AVI file which contains 2 Audio Streams.
    Itīs a recording which failed and i had to cut of the process which probably in turn made the Index non-existant.

    So i am trying to solve it by Re-Saving the file to Re-index it.

    I have succeeded by using Mencoder.

    Sadly it doesnīt work with the Second stream and only Stream 1 is in the "Repaired" file.

    Does anyone have any ideas how i can retrieve the other stream?
    Last edited by zerowalker; 6th Jan 2014 at 02:16.
    Quote Quote  
  2. Try VirtualDubMod. It'll open/save AVIs with more than one audio stream. You can access them if need be using the Streams/Streams List menu. When resaving, select "Direct Stream Copy" as the compression method under the Video menu.
    Or try AVIMux GUI.
    Quote Quote  
  3. None works, VirtualDubMod as well as VirtualDub just shows black screen and 0 frames, and resaving does nothing but saves nothing (extremely small .wav file).
    Quote Quote  
  4. vanished El Heggunte's Avatar
    Join Date: Jun 2009
    Location: Misplaced Childhood
    Search Comp PM
    Then try the following: run "ffmpeg -i Path\To\PeskyAvi.avi" and copy the result into your next post
    Quote Quote  
  5. Here is the result:

    [avi @ 00000000003f65c0] Stream #1: not enough frames to estimate rate; consider
    increasing probesize
    [avi @ 00000000003f65c0] Stream #2: not enough frames to estimate rate; consider
    increasing probesize
    Guessed Channel Layout for Input Stream #0.1 : stereo
    Guessed Channel Layout for Input Stream #0.2 : mono
    Input #0, avi, from 'Z:\DeadIslandGame 2014-01-05 01-07-02-352.avi':
    Metadata:
    encoder : DxtoryCore ver2.0.0.122
    ISRC : Video:UtVideo YUV420 BT.709 (ULH0) VCM Audio0:Speakers (2-
    Sound Blaster ZxR) Audio1:Microphone (Samson C03U )
    Duration: 03:03:13.90, start: 0.000000, bitrate: 265065 kb/s
    Stream #0:0: Video: utvideo (ULH0 / 0x30484C55), yuv420p(bt709), 1920x1080,
    30 fps, 30 tbr, 30 tbn, 30 tbc
    Stream #0:1: Audio: pcm_s16le ([1][0][0][0] / 0x0001), 48000 Hz, stereo, s16
    , 1536 kb/s
    Stream #0:2: Audio: pcm_s16le ([1][0][0][0] / 0x0001), 48000 Hz, mono, s16,
    768 kb/s
    At least one output file must be specified
    Quote Quote  



Similar Threads