VideoHelp Forum
+ Reply to Thread
Results 1 to 4 of 4
Thread
  1. So Im trying to convert a .ts video with handbrake to .m4v so it can play in itunes
    But once I try to play the video in itunes the video starts to freeze and lag like crazy.
    But it plays fine in VLC and classic media player.
    But when I play purchased itunes movie 1080p HD movies they play fine.
    Is it the setting in handbrake thats causing this?
    Any betters way to encode the file to play smoothly in itunes in 1080p

    Here's the info from the video:
    General
    Complete name : C:\Users\Angel\Desktop\Super Bowl.m4v
    Format : MPEG-4
    Format profile : Base Media / Version 2
    Codec ID : mp42
    File size : 1.40 GiB
    Duration : 13mn 18s
    Overall bit rate mode : Variable
    Overall bit rate : 15.1 Mbps
    Movie name : Super Bowl Half Time Show
    Track name/Position : 1
    Performer : BEYONCÉ
    Genre : Concert Films
    ContentType : TV Show
    Recorded date : 2013
    Encoded date : UTC 2013-12-14 19:45:01
    Tagged date : UTC 2013-12-14 22:50:28
    ContentRating : mpaa|UNRATED|600|

    Video
    ID : 1
    Format : AVC
    Format/Info : Advanced Video Codec
    Format profile : High@L4.0
    Format settings, CABAC : Yes
    Format settings, ReFrames : 4 frames
    Codec ID : avc1
    Codec ID/Info : Advanced Video Coding
    Duration : 13mn 18s
    Bit rate mode : Variable
    Bit rate : 14.5 Mbps
    Width : 1 918 pixels
    Height : 1 078 pixels
    Display aspect ratio : 16:9
    Frame rate mode : Constant
    Frame rate : 30.000 fps
    Color space : YUV
    Chroma subsampling : 4:2:0
    Bit depth : 8 bits
    Scan type : Progressive
    Bits/(Pixel*Frame) : 0.233
    Stream size : 1.35 GiB (96%)
    Encoded date : UTC 2013-12-14 19:45:01
    Tagged date : UTC 2013-12-14 20:39:24
    Color primaries : BT.709
    Transfer characteristics : BT.709
    Matrix coefficients : BT.709

    Audio #1
    ID : 2
    Format : AAC
    Format/Info : Advanced Audio Codec
    Format profile : LC
    Codec ID : 40
    Duration : 13mn 18s
    Bit rate mode : Variable
    Bit rate : 160 Kbps
    Maximum bit rate : 186 Kbps
    Channel(s) : 2 channels
    Channel positions : Front: L R
    Sampling rate : 48.0 KHz
    Compression mode : Lossy
    Delay relative to video : 67ms
    Stream size : 15.2 MiB (1%)
    Language : English
    Encoded date : UTC 2013-12-14 19:45:01
    Tagged date : UTC 2013-12-14 20:39:23

    Audio #2
    ID : 3
    Format : AC-3
    Format/Info : Audio Coding 3
    Codec ID : ac-3
    Duration : 13mn 18s
    Bit rate mode : Constant
    Bit rate : 448 Kbps
    Sampling rate : 48.0 KHz
    Bit depth : 16 bits
    Compression mode : Lossy
    Delay relative to video : 67ms
    Stream size : 42.6 MiB (3%)
    Language : English
    Encoded date : UTC 2013-12-14 19:45:01
    Tagged date : UTC 2013-12-14 20:39:23
    Quote Quote  
  2. Member hech54's Avatar
    Join Date: Jul 2001
    Location: Yank in Europe
    Search Comp PM
    Originally Posted by angelroj7 View Post
    So Im trying to convert a .ts video with handbrake to .m4v so it can play in itunes
    But once I try to play the video in itunes the video starts to freeze and lag like crazy.
    Play it in iTunes?
    You mean play it on an Apple device?
    Quote Quote  
  3. Originally Posted by hech54 View Post
    Originally Posted by angelroj7 View Post
    So Im trying to convert a .ts video with handbrake to .m4v so it can play in itunes
    But once I try to play the video in itunes the video starts to freeze and lag like crazy.
    Play it in iTunes?
    You mean play it on an Apple device?
    More on my computer.
    Quote Quote  
  4. I'm a MEGA Super Moderator Baldrick's Avatar
    Join Date: Aug 2000
    Location: Sweden
    Search Comp PM
    Use the Normal Preset.
    Set it to exact 1920x1280 by disabling automatic cropping.
    Remove the ac3 audio track.
    Try lower the video bitrate. Increase the constant quality value or set the bitrate manually.

    And see if it makes any difference.
    Quote Quote  



Similar Threads