VideoHelp Forum
+ Reply to Thread
Results 1 to 2 of 2
Thread
  1. Code:
    HandBrakeCLI -i "d:\Trainers\Anton.wmv" -o "d:\Trainers\Anton.mp4" -e x264 --x264-preset slower --x264-tune film -x level=3.1 -8 -7 -q 23 -B 80 -v 2>log2.txt
    Using above code i got following three errors in my log file can someone explain these three errors
    Code:
    x264 [warning]: --psnr used with psy on: results will be invalid!
    x264 [warning]: --tune psnr should be used if attempting to benchmark psnr!
    x264 [warning]: DPB size (8 frames, 11059200 bytes) > level limit (5 frames, 6912000 bytes)
    info of original file
    Code:
    General
    Complete name                  : D:\Trainers\Anton.wmv
    Format                         : Windows Media
    File size                      : 425 MiB
    Duration                       : 16mn 9s
    Overall bit rate mode          : Variable
    Overall bit rate               : 3 675 Kbps
    Maximum Overall bit rate       : 3 736 Kbps
    Encoded date                   : UTC 2010-11-13 22:26:41.340
    WM/WMADRCAverageReference      : 1376
    WM/WMADRCAverageTarget         : 1376
    
    Video
    ID                             : 1
    Format                         : VC-1
    Format profile                 : MP
    Codec ID                       : WMV3
    Codec ID/Info                  : Windows Media Video 9
    Codec ID/Hint                  : WMV3
    Duration                       : 16mn 9s
    Bit rate mode                  : Variable
    Bit rate                       : 3 549 Kbps
    Width                          : 1 280 pixels
    Height                         : 720 pixels
    Display aspect ratio           : 16:9
    Frame rate                     : 25.000 fps
    Bit depth                      : 8 bits
    Scan type                      : Progressive
    Compression mode               : Lossy
    Bits/(Pixel*Frame)             : 0.154
    Stream size                    : 410 MiB (97%)
    Language                       : English (US)
    
    Audio
    ID                             : 2
    Format                         : WMA
    Format profile                 : Pro
    Codec ID                       : 162
    Codec ID/Info                  : Windows Media Audio
    Duration                       : 16mn 9s
    Bit rate mode                  : Constant
    Bit rate                       : 152 Kbps
    Channel(s)                     : 2 channels
    Sampling rate                  : 48.0 KHz
    Bit depth                      : 16 bits
    Stream size                    : 17.5 MiB (4%)
    Language                       : English (US)
    Quote Quote  
  2. I'm a MEGA Super Moderator Baldrick's Avatar
    Join Date: Aug 2000
    Location: Sweden
    Search Comp PM
    Try google the errors.

    Like the first one:
    http://forum.doom9.org/showthread.php?t=161534
    Quote Quote  



Similar Threads