VideoHelp Forum
+ Reply to Thread
Results 1 to 4 of 4
Thread
  1. i am trying to convert mts files to avi\mp4.. by using Format Factory. time after the the convert ends stressful but with no sound i been trying different quality.
    what i am doing wrong? how i need to set the settings?
    Last edited by yan2411; 22nd May 2012 at 01:20.
    Quote Quote  
  2. I'm a MEGA Super Moderator Baldrick's Avatar
    Join Date: Aug 2000
    Location: Sweden
    Search Comp PM
    Give more details.
    What are you converting to? Video and audio codec.
    What is the video source mts details? Video and audio codec. You can check with mediainfo if you don't know.

    Or try another converter like freemake video converter, handbrake, etc.
    Quote Quote  
  3. i am not sure that i am understand this question: "What are you converting to? Video and audio codec."? i want to make the MTS file to a AVI file or MP4 something smaller... the file is video and audio..
    I try to use ANY VIDEO CONVERTER to..

    MEDIA INFO

    General
    ID : 1 (0x1)
    Complete name : E:\mikes\00006.MTS
    Format : BDAV
    Format/Info : Blu-ray Video
    File size : 3.99 GiB
    Duration : 21mn 53s
    Overall bit rate : 26.1 Mbps
    Maximum Overall bit rate : 28.0 Mbps

    Video
    ID : 4113 (0x1011)
    Menu ID : 1 (0x1)
    Format : AVC
    Format/Info : Advanced Video Codec
    Format profile : High@L4.2
    Format settings, CABAC : Yes
    Format settings, ReFrames : 4 frames
    Format settings, GOP : M=3, N=24
    Codec ID : 27
    Duration : 21mn 53s
    Bit rate mode : Variable
    Bit rate : 24.8 Mbps
    Maximum bit rate : 26.0 Mbps
    Width : 1 920 pixels
    Height : 1 080 pixels
    Display aspect ratio : 16:9
    Frame rate : 50.000 fps
    Color space : YUV
    Chroma subsampling : 4:2:0
    Bit depth : 8 bits
    Scan type : Progressive
    Bits/(Pixel*Frame) : 0.239
    Stream size : 3.79 GiB (95%)

    Audio
    ID : 4352 (0x1100)
    Menu ID : 1 (0x1)
    Format : AC-3
    Format/Info : Audio Coding 3
    Mode extension : CM (complete main)
    Codec ID : 129
    Duration : 21mn 53s
    Bit rate mode : Constant
    Bit rate : 256 Kbps
    Channel(s) : 2 channels
    Channel positions : Front: L R
    Sampling rate : 48.0 KHz
    Bit depth : 16 bits
    Compression mode : Lossy
    Delay relative to video : -40ms
    Stream size : 40.1 MiB (1%)

    Text
    ID : 4608 (0x1200)
    Menu ID : 1 (0x1)
    Format : PGS
    Codec ID : 144
    Duration : 21mn 53s
    Delay relative to video : -40ms
    Quote Quote  
  4. I'm a MEGA Super Moderator Baldrick's Avatar
    Join Date: Aug 2000
    Location: Sweden
    Search Comp PM
    Try then handbrake. Convert to a mp4. Under the video tab can you adjust the quality/bitrate settings to get smaller size.
    Quote Quote  



Similar Threads