VideoHelp Forum
+ Reply to Thread
Results 1 to 8 of 8
Thread
  1. Member
    Join Date: Jan 2012
    Location: Budapest
    Search Comp PM
    Hello!

    I've Win 7 x64 Iexplorer9 newest Chrome, Intel Core 2 Duo 2GHZ, Geforce GT440

    The hardware video acceleration works in every major video-hostig services like Youtube Vimeo etc.....
    However, when I used own bulit h.264 flash web videos (mp4 or fLV), the HW acceleration doesn't work...

    I used SocuSoft Web Video Player to build flash web video sites.
    What can I do?

    Thank you for your answers!
    Quote Quote  
  2. The hardware acceleration function is provided by the browser (IE9, Chrome 6, Opera 12 and Firefox 4), to get it you have to play the video in the browser.
    Quote Quote  
  3. Member
    Join Date: Jan 2012
    Location: Budapest
    Search Comp PM
    Originally Posted by nic2k4 View Post
    The hardware acceleration function is provided by the browser (IE9, Chrome 6, Opera 12 and Firefox 4), to get it you have to play the video in the browser.
    OK, but HW acceleration works only with Youtube Vimeo and other famous video-sharing networks on my system. It doesn't work with my own created videos.
    Quote Quote  
  4. Member
    Join Date: Jan 2012
    Location: Budapest
    Search Comp PM
    Here is my flash video: (The HW acceleration of my video card didn't support it! Tested with Geforce GT 440, Win7 x64 the newest opera mozilla IE9 and newest G.Chrome browsers)

    http://diktafon.atw.hu/video.html

    The video file: mp4 h.264 1920x1080


    General
    Complete name : C:\Users\Celebration\Desktop\video.mp4
    Format : MPEG-4
    Format profile : Base Media
    Codec ID : isom
    File size : 24.0 MiB
    Duration : 25s 103ms
    Overall bit rate mode : Constant
    Overall bit rate : 8 021 Kbps
    Encoded date : UTC 2012-04-23 06:55:10
    Tagged date : UTC 2012-04-23 06:55:10

    Video
    ID : 1
    Format : AVC
    Format/Info : Advanced Video Codec
    Format profile : High@L4.0
    Format settings, CABAC : Yes
    Format settings, ReFrames : 2 frames
    Codec ID : avc1
    Codec ID/Info : Advanced Video Coding
    Duration : 24s 600ms
    Bit rate mode : Constant
    Bit rate : 8 000 Kbps
    Maximum bit rate : 10.2 Mbps
    Width : 1 920 pixels
    Height : 1 080 pixels
    Display aspect ratio : 16:9
    Frame rate mode : Constant
    Frame rate : 25.000 fps
    Color space : YUV
    Chroma subsampling : 4:2:0
    Bit depth : 8 bits
    Scan type : Progressive
    Bits/(Pixel*Frame) : 0.154
    Stream size : 23.6 MiB (98%)
    Encoded date : UTC 2012-04-23 06:55:10
    Tagged date : UTC 2012-04-23 06:55:10

    Audio
    ID : 2
    Format : MPEG Audio
    Format version : Version 1
    Format profile : Layer 3
    Mode : Joint stereo
    Mode extension : MS Stereo
    Codec ID : 6B
    Duration : 25s 103ms
    Bit rate mode : Constant
    Bit rate : 128 Kbps
    Maximum bit rate : 132 Kbps
    Channel(s) : 2 channels
    Sampling rate : 48.0 KHz
    Compression mode : Lossy
    Stream size : 392 KiB (2%)
    Title : mctemp5912d4e569718197.mp3#audio - Imported with GPAC 0.4.6-DEV-rev3955
    Writing library : LAME3.97a
    Encoding settings : -m j -V 4 -q 2 -lowpass 17.5 -b 128
    Encoded date : UTC 2012-04-23 06:55:10
    Tagged date : UTC 2012-04-23 06:55:10
    Quote Quote  
  5. I'm a MEGA Super Moderator Baldrick's Avatar
    Join Date: Aug 2000
    Location: Sweden
    Search Comp PM
    It works fine here. 3-5% CPU usage with enabled hardware acceleration in flash and 7-8% without.
    Quote Quote  
  6. Member
    Join Date: Jan 2012
    Location: Budapest
    Search Comp PM
    Originally Posted by Baldrick View Post
    It works fine here. 3-5% CPU usage with enabled hardware acceleration in flash and 7-8% without.
    What's the wrong with my computer? Win 7 x64 Geforce GT 440, and the newest avaiable browsers.....
    My HW acceleration works on every great video hosting services. However my own videos are not supported by HW acceleration.

    Which browser did you use? Where can you turn on HW acceleration in your browser?
    Last edited by Stears555; 23rd Apr 2012 at 06:06.
    Quote Quote  
  7. Originally Posted by Stears555 View Post
    Win 7 x64 Geforce GT 440, and the newest avaiable browsers.....
    Which flash version did you install, 32 or 64 bit? Try playing it through VLC.

    Originally Posted by Stears555 View Post
    Which browser did you use? Where can you turn on HW acceleration in your browser?
    In Firefox, it's under the Tools (alt-T) menu, Options, on the Advanced tab:

    Name:  111.png
Views: 509
Size:  26.5 KB
    Quote Quote  
  8. Member
    Join Date: Jan 2012
    Location: Budapest
    Search Comp PM
    Originally Posted by nic2k4 View Post
    Originally Posted by Stears555 View Post
    Win 7 x64 Geforce GT 440, and the newest avaiable browsers.....
    Which flash version did you install, 32 or 64 bit? Try playing it through VLC.

    Originally Posted by Stears555 View Post
    Which browser did you use? Where can you turn on HW acceleration in your browser?
    In Firefox, it's under the Tools (alt-T) menu, Options, on the Advanced tab:

    Attachment 12142

    It can't help :'(
    Quote Quote  



Similar Threads