VideoHelp Forum
+ Reply to Thread
Results 1 to 7 of 7
Thread
  1. A DVDRip.Xvid.AC3 will not play in DVD on my standalone LG bd 350 Bluray player but will play on USB on that player and from the DVD drive of computer under VLC

    Does anyone know why this is? File does not have Warppoints or Qpel. I can play it but am curious as to why it wil not play on the BD player
    Quote Quote  
  2. I'm a MEGA Super Moderator Baldrick's Avatar
    Join Date: Aug 2000
    Location: Sweden
    Search Comp PM
    Post the full details from the video file. Use MediaInfo.
    Quote Quote  
  3. Originally Posted by Baldrick View Post
    Post the full details from the video file. Use MediaInfo.
    Here it is

    General
    Complete name : C:\Users\USERNAME\NAME OF FILE[YEAR].Dvdrip.Xvid.AC3[5.1]-NAME OF FILE[YEAR].Dvdrip.Xvid.AC3[5.1]-RoCK.avi
    Format : AVI
    Format/Info : Audio Video Interleave
    Format profile : OpenDML
    Format settings : rec
    File size : 1.46 GiB
    Duration : 2h 22mn
    Overall bit rate : 1 465 Kbps
    Writing application : AVI-Mux GUI 1.17.7, Aug 8 2006 20:59:17

    Video
    ID : 0
    Format : MPEG-4 Visual
    Format profile : Simple@L3
    Format settings, BVOP : No
    Format settings, QPel : No
    Format settings, GMC : No warppoints
    Format settings, Matrix : Default (H.263)
    Codec ID : XVID
    Codec ID/Hint : XviD
    Duration : 2h 15mn
    Bit rate : 1 076 Kbps
    Width : 720 pixels
    Height : 336 pixels
    Display aspect ratio : 2.2:1
    Frame rate : 25.000 fps
    Color space : YUV
    Chroma subsampling : 4:2:0
    Bit depth : 8 bits
    Scan type : Progressive
    Compression mode : Lossy
    Bits/(Pixel*Frame) : 0.178
    Stream size : 1.07 GiB (73%)
    Writing library : XviD 1.2.0.dev47 (UTC 2006-11-01)

    Audio
    ID : 1
    Format : AC-3
    Format/Info : Audio Coding 3
    Mode extension : CM (complete main)
    Codec ID : 2000
    Duration : 2h 22mn
    Bit rate mode : Constant
    Bit rate : 384 Kbps
    Channel(s) : 6 channels
    Channel positions : Front: L C R, Side: L R, LFE
    Sampling rate : 48.0 KHz
    Bit depth : 16 bits
    Compression mode : Lossy
    Stream size : 392 MiB (26%)
    Alignment : Aligned on interleaves
    Interleave, duration : 64 ms (1.60 video frames)
    Interleave, preload duration : 192 ms
    Quote Quote  
  4. Member
    Join Date: Oct 2004
    Location: Freedonia
    Search Comp PM
    Offhand I'm not seeing anything in the file that stands out as a problem, but others will comment if I missed something. I would guess that either the LG simply doesn't support Divx playback from DVD or that it does but it has restrictions on the file system on the DVD. For example, maybe it will play Divx burned to DVD discs but you have to do the burn as ISO or ISO+Joliet and you did a UDF burn.

    Hang on - I do notice that the video and audio have different durations by 7 minutes. That's definitely bad. I can't say that this is your problem but that's definitely bad. The video duration seems to be the wrong one.
    Quote Quote  
  5. I'm a MEGA Super Moderator Baldrick's Avatar
    Join Date: Aug 2000
    Location: Sweden
    Search Comp PM
    It's probably not the video as it works from the usb connection.

    Can you select the avi from the blu-ray player? Or does it not list any files? If so how how do you burn the file? You might have to burn in mixed UDF/ISO mode.


    And some blu-ray players does not support avi from cd/dvd/bd media.


    edit:too slow...
    Quote Quote  
  6. Member hech54's Avatar
    Join Date: Jul 2001
    Location: Yank in Europe
    Search Comp PM
    Originally Posted by David Banner View Post
    A DVDRip.Xvid.AC3 will not play in DVD on my standalone LG bd 350 Bluray player but will play on USB on that player and from the DVD drive of computer under VLC

    Does anyone know why this is? File does not have Warppoints or Qpel. I can play it but am curious as to why it wil not play on the BD player
    Do the specs of this Blu Ray player SAY it will play an xvid file burned as data to a DVD? Many Xvid/Divx capable DVD players specifically listed playing Xvid/Divx files only from USB.
    Quote Quote  
  7. Originally Posted by Baldrick View Post
    It's probably not the video as it works from the usb connection.

    Can you select the avi from the blu-ray player?
    Or does it not list any files? If so how how do you burn the file? You might have to burn in mixed UDF/ISO mode.


    And some blu-ray players does not support avi from cd/dvd/bd media.


    edit:too slow...
    If you mean the DVD player as distinct from the USB? I select data. I see the file name. But when I press play nothing happens
    And some blu-ray players does not support avi from cd/dvd/bd media.
    mine will play avi from DVD burned as data but not all of them
    Last edited by David Banner; 10th Nov 2011 at 14:32.
    Quote Quote  



Similar Threads