VideoHelp Forum
+ Reply to Thread
Page 19 of 100
FirstFirst ... 9 17 18 19 20 21 29 69 ... LastLast
Results 541 to 570 of 2995
Thread
  1. Stream recording expert Bahman's Avatar
    Join Date: Dec 2011
    Location: Tehran, Iran
    Search Comp PM
    I got the links easy with FireFox and rtmpdumphelper! I have added -v option, may it prevent from failing to download!

    You should use newer rtmpdump! here!
    Quote Quote  
  2. Member
    Join Date: Aug 2012
    Location: Bulgaria
    Search PM
    Originally Posted by Bahman View Post
    I got the links easy with FireFox and rtmpdumphelper! I have added -v option, may it prevent from failing to download!

    You should use newer rtmpdump! here!
    Ok, I downloaded the newer version of the rtmpdump and the URLs that you provided worked. Thanks so much!!!!!

    I then however tried to use RtmpHelper to do the next video:

    http://www.dolce-sport.ro/sporturi/jocurile-olimpice/echipa-feminin-de-gimnastic-locul...aparate-14382/

    I opened it in Firefox and here is what I got in the rtmpsuck:

    http://screencast.com/t/ymoHeadyD

    It however does not contain all the info you have in the command you gave me in your post. I am not sure what exactly I am doing wrong here,

    Thanks a lot for your help!
    Quote Quote  
  3. Stream recording expert Bahman's Avatar
    Join Date: Dec 2011
    Location: Tehran, Iran
    Search Comp PM
    in rtmodumphelper --> options --> RTMPDump Option --> select "rtmp server" instead of "rtmp proxy server"! Then Try!
    and I have removed un-needed parameters in command!! the command that it self creates is OK and full! There is no problem and you are not doing anything wrong!
    Quote Quote  
  4. Member
    Join Date: Aug 2012
    Location: Bulgaria
    Search PM
    I was able to download the videos that I needed, but partially using Stream Support. The part that I could not get using RTMP tools was:

    2012/08/07/mp4:izbasa-19_15_42_low.mp4

    I tried what you suggested, I went into the options and selected RTMP server instead of the default option, but with that option selected, I only get this error:

    ERROR: WriteN, RTMP send error xxxx (xx bytes)
    ERROR: RTMP_ReadPacket, failed to read RTMP packet header

    I am pretty sure I am missing something, but I do not see many options in the program...

    Thanks!
    Quote Quote  
  5. Stream recording expert Bahman's Avatar
    Join Date: Dec 2011
    Location: Tehran, Iran
    Search Comp PM
    Originally Posted by deburg0 View Post
    With Coojah, track the packets until you find .m3u8 file and use it in ffmpeg as input! Then:
    Code:
    ffmpeg -i "http://www.youtube.com/api/manifest/hls_playlist/id/0f2523b412889
    50c/itag/96/source/yt_live_broadcast/ratebypass/yes/cmbypass/yes/playlist_type/C
    LEAN/maudio/1/pmbypass/yes/upn/YJXU_CTb2vg/sver/3/ip/66.90.73.46/ipbits/8/expire
    /1344545894/sparams/ip,ipbits,expire,id,itag,source,ratebypass,cmbypass,playlist
    _type,maudio,pmbypass/signature/83591670F3417E19DB2C555F28DC5FFF75446D73.01F1AF2
    F594890D478054573CDB670F57D30EC7F/key/ck1/file/index.m3u8" "olympic.mp4"
    ffmpeg version N-43206-gf857465 Copyright (c) 2000-2012 the FFmpeg developers
      built on Aug  4 2012 16:10:39 with gcc 4.7.1 (GCC)
      configuration: --enable-gpl --enable-version3 --disable-w32threads --enable-ru
    ntime-cpudetect --enable-avisynth --enable-bzlib --enable-frei0r --enable-libass
     --enable-libcelt --enable-libopencore-amrnb --enable-libopencore-amrwb --enable
    -libfreetype --enable-libgsm --enable-libmp3lame --enable-libnut --enable-libope
    njpeg --enable-librtmp --enable-libschroedinger --enable-libspeex --enable-libth
    eora --enable-libutvideo --enable-libvo-aacenc --enable-libvo-amrwbenc --enable-
    libvorbis --enable-libvpx --enable-libx264 --enable-libxavs --enable-libxvid --e
    nable-zlib
      libavutil      51. 66.100 / 51. 66.100
      libavcodec     54. 49.100 / 54. 49.100
      libavformat    54. 22.100 / 54. 22.100
      libavdevice    54.  2.100 / 54.  2.100
      libavfilter     3.  5.102 /  3.  5.102
      libswscale      2.  1.100 /  2.  1.100
      libswresample   0. 15.100 /  0. 15.100
      libpostproc    52.  0.100 / 52.  0.100
    [mpegts @ 02638260] Estimating duration from bitrate, this may be inaccurate
    Input #0, hls,applehttp, from 'http://www.youtube.com/api/manifest/hls_playlist/
    id/0f2523b41288950c/itag/96/source/yt_live_broadcast/ratebypass/yes/cmbypass/yes
    /playlist_type/CLEAN/maudio/1/pmbypass/yes/upn/YJXU_CTb2vg/sver/3/ip/66.90.73.46
    /ipbits/8/expire/1344545894/sparams/ip,ipbits,expire,id,itag,source,ratebypass,c
    mbypass,playlist_type,maudio,pmbypass/signature/83591670F3417E19DB2C555F28DC5FFF
    75446D73.01F1AF2F594890D478054573CDB670F57D30EC7F/key/ck1/file/index.m3u8':
      Duration: 02:33:46.00, start: 42130.197067, bitrate: 0 kb/s
        Stream #0:0: Video: h264 (Main) ([27][0][0][0] / 0x001B), yuv420p, 1920x1080
    [SAR 1:1 DAR 16:9], 25 fps, 25 tbr, 90k tbn, 50 tbc
        Stream #0:1: Audio: aac ([15][0][0][0] / 0x000F), 48000 Hz, stereo, s16, 159
     kb/s
    [libx264 @ 03cf0940] using SAR=1/1
    [libx264 @ 03cf0940] using cpu capabilities: MMX2 SSE2 SSE3 Cache64
    [libx264 @ 03cf0940] profile High, level 3.1
    [libx264 @ 03cf0940] 264 - core 125 r2208 d9d2288 - H.264/MPEG-4 AVC codec - Cop
    yleft 2003-2012 - http://www.videolan.org/x264.html - options: cabac=1 ref=3 deb
    lock=1:0:0 analyse=0x3:0x113 me=hex subme=7 psy=1 psy_rd=1.00:0.00 mixed_ref=1 m
    e_range=16 chroma_me=1 trellis=1 8x8dct=1 cqm=0 deadzone=21,11 fast_pskip=1 chro
    ma_qp_offset=-2 threads=1 lookahead_threads=1 sliced_threads=0 nr=0 decimate=1 i
    nterlaced=0 bluray_compat=0 constrained_intra=0 bframes=3 b_pyramid=2 b_adapt=1
    b_bias=0 direct=1 weightb=1 open_gop=0 weightp=2 keyint=250 keyint_min=25 scenec
    ut=40 intra_refresh=0 rc_lookahead=40 rc=crf mbtree=1 crf=23.0 qcomp=0.60 qpmin=
    0 qpmax=69 qpstep=4 ip_ratio=1.40 aq=1:1.00
    Output #0, mp4, to 'olypic.mp4':
      Metadata:
        encoder         : Lavf54.22.100
        Stream #0:0: Video: h264 ([33][0][0][0] / 0x0021), yuv420p, 1920x1080 [SAR 1:
    1 DAR 16:9], q=-1--1, 25 tbn, 25 tbc
        Stream #0:1: Audio: aac ([64][0][0][0] / 0x0040), 48000 Hz, stereo, s16, 128
     kb/s
    Stream mapping:
      Stream #0:0 -> #0:0 (h264 -> libx264)
      Stream #0:1 -> #0:1 (aac -> libvo_aacenc)
    Press [q] to stop, [?] for help
    frame=   22 fps=0.0 q=0.0 size=       0kB time=00:00:00.00 bitrate=   0.0kbits/s
    frame=   24 fps= 18 q=0.0 size=       0kB time=00:00:00.00 bitrate=   0.0kbits/s
    frame=   25 fps=5.8 q=0.0 size=       0kB time=00:00:00.00 bitrate=   0.0kbits/s
    frame=   26 fps=3.6 q=0.0 size=       0kB time=00:00:00.00 bitrate=   0.0kbits/s
    frame=   26 fps=2.4 q=0.0 size=       0kB time=00:00:00.00 bitrate=   0.0kbits/s
    frame=   28 fps=2.0 q=0.0 size=       0kB time=00:00:00.00 bitrate=   0.0kbits/s
    frame=   29 fps=1.5 q=0.0 size=       0kB time=00:00:00.00 bitrate=   0.0kbits/s
    frame=   29 fps=1.3 q=0.0 size=       0kB time=00:00:00.00 bitrate=   0.0kbits/s
    frame=   29 fps=1.2 q=0.0 size=       0kB time=00:00:00.00 bitrate=   0.0kbits/s
    frame=   31 fps=1.2 q=0.0 size=       0kB time=00:00:00.00 bitrate=   0.0kbits/s
    frame=   32 fps=1.2 q=0.0 size=       0kB time=00:00:00.00 bitrate=   0.0kbits/s
    frame=   32 fps=1.1 q=0.0 size=       0kB time=00:00:00.00 bitrate=   0.0kbits/s
    frame=   32 fps=1.1 q=0.0 size=       0kB time=00:00:00.00 bitrate=   0.0kbits/s
    frame=   34 fps=1.1 q=0.0 size=       0kB time=00:00:00.00 bitrate=   0.0kbits/s
    frame=   35 fps=0.9 q=0.0 size=       0kB time=00:00:00.00 bitrate=   0.0kbits/s
    frame=   36 fps=0.9 q=0.0 size=       0kB time=00:00:00.00 bitrate=   0.0kbits/s
    frame=   36 fps=0.9 q=0.0 size=       0kB time=00:00:00.00 bitrate=   0.0kbits/s
    frame=   38 fps=0.8 q=0.0 size=       0kB time=00:00:00.00 bitrate=   0.0kbits/s
    frame=   38 fps=0.8 q=0.0 size=       0kB time=00:00:00.00 bitrate=   0.0kbits/s
    frame=   40 fps=0.8 q=0.0 size=       0kB time=00:00:00.00 bitrate=   0.0kbits/s
    frame=   41 fps=0.8 q=0.0 size=       0kB time=00:00:00.00 bitrate=   0.0kbits/s
    frame=   41 fps=0.7 q=0.0 size=       0kB time=00:00:00.00 bitrate=   0.0kbits/s
    frame=   43 fps=0.7 q=28.0 size=      34kB time=00:00:00.00 bitrate=   0.0kbits/
    frame=   44 fps=0.7 q=28.0 size=      42kB time=00:00:00.04 bitrate=8502.2kbits/
    frame=   44 fps=0.7 q=28.0 size=      42kB time=00:00:00.04 bitrate=8502.2kbits/
    frame=   46 fps=0.7 q=28.0 size=      59kB time=00:00:00.12 bitrate=4041.1kbits/
    frame=   47 fps=0.7 q=28.0 size=      70kB time=00:00:00.16 bitrate=3562.7kbits/
    frame=   47 fps=0.7 q=28.0 size=      70kB time=00:00:00.16 bitrate=3562.7kbits/
    frame=   49 fps=0.7 q=28.0 size=      88kB time=00:00:00.24 bitrate=2999.1kbits/
    frame=   50 fps=0.7 q=28.0 size=      97kB time=00:00:00.28 bitrate=2833.3kbits/
    frame=   50 fps=0.7 q=28.0 size=      97kB time=00:00:00.28 bitrate=2833.3kbits/
    frame=   52 fps=0.7 q=28.0 size=     116kB time=00:00:00.36 bitrate=2645.8kbits/
    frame=   53 fps=0.7 q=28.0 size=     126kB time=00:00:00.40 bitrate=2572.0kbits/
    frame=   54 fps=0.7 q=28.0 size=     135kB time=00:00:00.44 bitrate=2508.5kbits/
    frame=   54 fps=0.7 q=28.0 size=     135kB time=00:00:00.44 bitrate=2508.5kbits/
    frame=   56 fps=0.7 q=28.0 size=     153kB time=00:00:00.52 bitrate=2413.8kbits/
    frame=   57 fps=0.7 q=28.0 size=     162kB time=00:00:00.56 bitrate=2375.7kbits/
    frame=   57 fps=0.6 q=28.0 size=     162kB time=00:00:00.56 bitrate=2375.7kbits/
    frame=   57 fps=0.6 q=28.0 size=     162kB time=00:00:00.56 bitrate=2375.7kbits/
    frame=   59 fps=0.6 q=28.0 size=     181kB time=00:00:00.64 bitrate=2320.6kbits/
    frame=   60 fps=0.6 q=28.0 size=     189kB time=00:00:00.68 bitrate=2282.2kbits/
    frame=   61 fps=0.6 q=28.0 size=     200kB time=00:00:00.72 bitrate=2278.3kbits/
    frame=   61 fps=0.6 q=28.0 size=     200kB time=00:00:00.72 bitrate=2278.3kbits/
    s dup=1 drop=0
    You can't use my script, because the link has expiration! you should get a new one for your self!
    Quote Quote  
  6. Member
    Join Date: Aug 2012
    Location: United States
    Search Comp PM
    Thank you very much Bahman.

    I was also able to find the *.m3u8 file using Firefox: Tools -> Web Developer -> Web Console; Filter: m3u8

    These files are large and often the download is interrupted before the end of the file.

    Could I use the -ss option to break these downloads up into segments?

    Is there a way to resume an interrupted download?

    thanks again.
    Quote Quote  
  7. Stream recording expert Bahman's Avatar
    Join Date: Dec 2011
    Location: Tehran, Iran
    Search Comp PM
    Originally Posted by deburg0 View Post
    I was also able to find the *.m3u8 file using Firefox: Tools -> Web Developer -> Web Console; Filter: m3u8

    These files are large and often the download is interrupted before the end of the file.

    Could I use the -ss option to break these downloads up into segments?

    Is there a way to resume an interrupted download?
    Well done!!

    I don't know much about ffmpeg, but I think someone here knows a lot about this program! bat999, can you plz help us!
    Quote Quote  
  8. Member bat999's Avatar
    Join Date: Feb 2008
    Location: United Kingdom
    Search Comp PM
    Originally Posted by Bahman View Post
    bat999, can you plz help us!
    Not this website.

    Name:  nbc2.png
Views: 2468
Size:  52.2 KB
    Quote Quote  
  9. Stream recording expert Bahman's Avatar
    Join Date: Dec 2011
    Location: Tehran, Iran
    Search Comp PM
    Quote Quote  
  10. Hi can anyone help me please.

    Thanks

    Attachment 13437
    Quote Quote  
  11. Member Seeker47's Avatar
    Join Date: Jul 2005
    Location: drifting, somewhere on the Sea of Cynicism
    Search Comp PM
    Originally Posted by bat999 View Post
    Originally Posted by Bahman View Post
    bat999, can you plz help us!
    Not this website.

    Attachment 13436

    I wonder if they are screwing that coverage up as wretchedly as they are mishandling their U.S. broadcasting ?

    http://forum.videohelp.com/threads/348304-Olympics-Coverage-Question-Comment?p=2179185#post2179185
    When in Las Vegas, don't miss the Pinball Hall of Fame Museum http://www.pinballmuseum.org/ -- over 150 tables from 6+ decades of this gradually disappearing American art form.
    Quote Quote  
  12. Can anyone check something for me? I've tried to get the following using rtmpdump or the nirsoft RTMPDumpHelper, but I just can't make any magic happen. I'm using the latest 2.4 linked above with no success:

    http://tvnz.co.nz/animal-academy/s5-ep10-video-4876127
    Quote Quote  
  13. Stream recording expert Bahman's Avatar
    Join Date: Dec 2011
    Location: Tehran, Iran
    Search Comp PM
    Use IDM and let us what will happens! I can't watch the video so that tell you exactly what you should use!
    Quote Quote  
  14. oh right...forgot about the stupid geolocation IP block...

    I have IDM and it doesn't capture it. I URL snooped it and it does come via rtmpe and it's an mp4 file.....just can't seem to get rtmpsuck or rtmpdump to pick it up. With the helper it says it's working, but it never captures...
    Quote Quote  
  15. Stream recording expert Bahman's Avatar
    Join Date: Dec 2011
    Location: Tehran, Iran
    Search Comp PM
    Well, It's a rtmpe stream! You have to use rtmpdump then! Open rtmpdumphelper and go to options and use rtmp server (rtmpsrv) instead of rtmpsuck! It should detects the link and tries to download that! if there is a problem, your firewall or sth is making noises! lol
    Quote Quote  
  16. hrmm...still perplexed....I must be missing something obvious. When I run the RTMPDumpHelper, it attaches to the browser it launches the rtmpsrv, i go to the page with the video and RTMPDumpHelper says "Captured RTMP Connection", but it never saves anything to file and the command window for rtmpsrv doesn't show any activity.

    Firewall is disabled. Running on Windows7 and have tried running everything with full admin priveleges and no success....

    I've tried other videos listed here in this thread and I can't get them to download either...

    I'm stumped...
    Quote Quote  
  17. Stream recording expert Bahman's Avatar
    Join Date: Dec 2011
    Location: Tehran, Iran
    Search Comp PM
    ^Try StreamTransport 1.0.2.2041!! Do not download latest version! May it helps!
    Quote Quote  
  18. Hi!

    I have a problem downloading a video from Moshcam: http://www.moshcam.com/the-jezabels/enmore-theatre-933.aspx

    I used this code:

    Code:
    rtmpdump -r "rtmpe://streaming.moshcam.com" -a "" -f "LNX 10,1,102,65" -W "http://www.moshcam.com/chooktv/Core/Flash/Container.swf" -p "http://www.moshcam.com/the-jezabels/enmore-theatre-933.aspx" -y "mp4:jezabels_003_20111021_e_hd_moshcam_1692k_480p.mp4" -o jezabels_003_20111021_e_hd_moshcam_1692k_480p.flv
    and this one:

    Code:
    rtmpdump -r "rtmpe://cp163278.edgefcs.net" -f "LNX 10,1,102,65"  -W "http://www.moshcam.com/chooktv/modules/Container.swf" -p  "http://www.moshcam.com/the-jezabels/enmore-theatre-933.aspx" -y  "1692k/jezabels_003_20111021_e_hd_moshcam_1692k_480p.mp4" -o  jezabels_003_20111021_e_hd_moshcam_1692k_480p.flv
    Neither works. I received a message like:

    RTMPDump v2.4 GIT-2011-07-11 (Compiled by KSV)
    (c) 2010 Andrej Stepanchuk, Howard Chu, The Flvstreamer Team; license: GPL
    WARNING: No application or playpath in URL!
    Connecting ...
    WARNING: HandShake: Type mismatch: client sent 6, server answered 9
    INFO: Connected...
    ERROR: rtmp server sent error
    ERROR: rtmp server requested close
    Anyone could fix the errors on these command lines?
    Thanks.

    PS: I used rtmpdump 2.4
    Quote Quote  
  19. Stream recording expert Bahman's Avatar
    Join Date: Dec 2011
    Location: Tehran, Iran
    Search Comp PM
    Originally Posted by deepblue-9 View Post
    Hi!

    I have a problem downloading a video from Moshcam: http://www.moshcam.com/the-jezabels/enmore-theatre-933.aspx
    Code:
    rtmpdump -r "rtmpe://cp163278.edgefcs.net/ondemand/" -a "ondemand/" -W "http://www.moshcam.com/chooktv/modules/Container.swf" -y "mp4:videos-moshcam/moshcam/1692k/jezabels_003_20111021_e_hd_moshcam_1692k_480p.mp4" -o jezabels_003_20111021_e_hd_moshcam_1692k_480p.flv
    Code:
    RTMPDump v2.4
    (c) 2010 Andrej Stepanchuk, Howard Chu, The Flvstreamer Team; license: GPL
    Connecting ...
    WARNING: HandShake: Type mismatch: client sent 6, server answered 9
    INFO: Connected...
    Starting download at: 0.000 kB
    INFO: Metadata:
    INFO:   duration              4233.09
    INFO:   moovPosition          36.00
    INFO:   audiocodecid          mp4a
    INFO:   width                 854.00
    INFO:   height                480.00
    INFO:   videocodecid          avc1
    INFO:   avcprofile            100.00
    INFO:   avclevel              31.00
    INFO:   aacaot                2.00
    INFO:   audiosamplerate       44100.00
    INFO:   audiochannels         2.00
    INFO:   videoframerate        25.00
    INFO: tags:
    INFO:   cpil                  0.00
    INFO:   tmpo                  0.00
    INFO:   ©too                 Sorenson Squeeze
    INFO: trackinfo:
    INFO:   length                186679296.00
    INFO:   timescale             44100.00
    INFO:   language              und
    INFO: sampledescription:
    INFO:   sampletype            mp4a
    INFO:   length                2539855.00
    INFO:   timescale             600.00
    INFO:   language              und
    INFO: sampledescription:
    INFO:   sampletype            avc1
    INFO:   length                2539855.00
    INFO:   timescale             600.00
    INFO:   language              und
    INFO: sampledescription:
    INFO:   length                2539855.00
    INFO:   timescale             600.00
    INFO:   language              und
    INFO: sampledescription:
    260.396 kB / 1.96 sec (0.0%)
    Quote Quote  
  20. ^^^^
    Thank you a lot for the very fast answer. Have a nice day!
    Quote Quote  
  21. Originally Posted by Bahman View Post
    Originally Posted by deburg0 View Post
    With Coojah, track the packets until you find .m3u8 file and use it in ffmpeg as input! Then:
    Code:
    ffmpeg -i "http://www.youtube.com/api/manifest/hls_playlist/id/0f2523b412889
    50c/itag/96/source/yt_live_broadcast/ratebypass/yes/cmbypass/yes/playlist_type/C
    LEAN/maudio/1/pmbypass/yes/upn/YJXU_CTb2vg/sver/3/ip/66.90.73.46/ipbits/8/expire
    /1344545894/sparams/ip,ipbits,expire,id,itag,source,ratebypass,cmbypass,playlist
    _type,maudio,pmbypass/signature/83591670F3417E19DB2C555F28DC5FFF75446D73.01F1AF2
    F594890D478054573CDB670F57D30EC7F/key/ck1/file/index.m3u8" "olympic.mp4"
    ffmpeg version N-43206-gf857465 Copyright (c) 2000-2012 the FFmpeg developers
      built on Aug  4 2012 16:10:39 with gcc 4.7.1 (GCC)
      configuration: --enable-gpl --enable-version3 --disable-w32threads --enable-ru
    ntime-cpudetect --enable-avisynth --enable-bzlib --enable-frei0r --enable-libass
     --enable-libcelt --enable-libopencore-amrnb --enable-libopencore-amrwb --enable
    -libfreetype --enable-libgsm --enable-libmp3lame --enable-libnut --enable-libope
    njpeg --enable-librtmp --enable-libschroedinger --enable-libspeex --enable-libth
    eora --enable-libutvideo --enable-libvo-aacenc --enable-libvo-amrwbenc --enable-
    libvorbis --enable-libvpx --enable-libx264 --enable-libxavs --enable-libxvid --e
    nable-zlib
      libavutil      51. 66.100 / 51. 66.100
      libavcodec     54. 49.100 / 54. 49.100
      libavformat    54. 22.100 / 54. 22.100
      libavdevice    54.  2.100 / 54.  2.100
      libavfilter     3.  5.102 /  3.  5.102
      libswscale      2.  1.100 /  2.  1.100
      libswresample   0. 15.100 /  0. 15.100
      libpostproc    52.  0.100 / 52.  0.100
    [mpegts @ 02638260] Estimating duration from bitrate, this may be inaccurate
    Input #0, hls,applehttp, from 'http://www.youtube.com/api/manifest/hls_playlist/
    id/0f2523b41288950c/itag/96/source/yt_live_broadcast/ratebypass/yes/cmbypass/yes
    /playlist_type/CLEAN/maudio/1/pmbypass/yes/upn/YJXU_CTb2vg/sver/3/ip/66.90.73.46
    /ipbits/8/expire/1344545894/sparams/ip,ipbits,expire,id,itag,source,ratebypass,c
    mbypass,playlist_type,maudio,pmbypass/signature/83591670F3417E19DB2C555F28DC5FFF
    75446D73.01F1AF2F594890D478054573CDB670F57D30EC7F/key/ck1/file/index.m3u8':
      Duration: 02:33:46.00, start: 42130.197067, bitrate: 0 kb/s
        Stream #0:0: Video: h264 (Main) ([27][0][0][0] / 0x001B), yuv420p, 1920x1080
    [SAR 1:1 DAR 16:9], 25 fps, 25 tbr, 90k tbn, 50 tbc
        Stream #0:1: Audio: aac ([15][0][0][0] / 0x000F), 48000 Hz, stereo, s16, 159
     kb/s
    [libx264 @ 03cf0940] using SAR=1/1
    [libx264 @ 03cf0940] using cpu capabilities: MMX2 SSE2 SSE3 Cache64
    [libx264 @ 03cf0940] profile High, level 3.1
    [libx264 @ 03cf0940] 264 - core 125 r2208 d9d2288 - H.264/MPEG-4 AVC codec - Cop
    yleft 2003-2012 - http://www.videolan.org/x264.html - options: cabac=1 ref=3 deb
    lock=1:0:0 analyse=0x3:0x113 me=hex subme=7 psy=1 psy_rd=1.00:0.00 mixed_ref=1 m
    e_range=16 chroma_me=1 trellis=1 8x8dct=1 cqm=0 deadzone=21,11 fast_pskip=1 chro
    ma_qp_offset=-2 threads=1 lookahead_threads=1 sliced_threads=0 nr=0 decimate=1 i
    nterlaced=0 bluray_compat=0 constrained_intra=0 bframes=3 b_pyramid=2 b_adapt=1
    b_bias=0 direct=1 weightb=1 open_gop=0 weightp=2 keyint=250 keyint_min=25 scenec
    ut=40 intra_refresh=0 rc_lookahead=40 rc=crf mbtree=1 crf=23.0 qcomp=0.60 qpmin=
    0 qpmax=69 qpstep=4 ip_ratio=1.40 aq=1:1.00
    Output #0, mp4, to 'olypic.mp4':
      Metadata:
        encoder         : Lavf54.22.100
        Stream #0:0: Video: h264 ([33][0][0][0] / 0x0021), yuv420p, 1920x1080 [SAR 1:
    1 DAR 16:9], q=-1--1, 25 tbn, 25 tbc
        Stream #0:1: Audio: aac ([64][0][0][0] / 0x0040), 48000 Hz, stereo, s16, 128
     kb/s
    Stream mapping:
      Stream #0:0 -> #0:0 (h264 -> libx264)
      Stream #0:1 -> #0:1 (aac -> libvo_aacenc)
    Press [q] to stop, [?] for help
    frame=   22 fps=0.0 q=0.0 size=       0kB time=00:00:00.00 bitrate=   0.0kbits/s
    frame=   24 fps= 18 q=0.0 size=       0kB time=00:00:00.00 bitrate=   0.0kbits/s
    frame=   25 fps=5.8 q=0.0 size=       0kB time=00:00:00.00 bitrate=   0.0kbits/s
    frame=   26 fps=3.6 q=0.0 size=       0kB time=00:00:00.00 bitrate=   0.0kbits/s
    frame=   26 fps=2.4 q=0.0 size=       0kB time=00:00:00.00 bitrate=   0.0kbits/s
    frame=   28 fps=2.0 q=0.0 size=       0kB time=00:00:00.00 bitrate=   0.0kbits/s
    frame=   29 fps=1.5 q=0.0 size=       0kB time=00:00:00.00 bitrate=   0.0kbits/s
    frame=   29 fps=1.3 q=0.0 size=       0kB time=00:00:00.00 bitrate=   0.0kbits/s
    frame=   29 fps=1.2 q=0.0 size=       0kB time=00:00:00.00 bitrate=   0.0kbits/s
    frame=   31 fps=1.2 q=0.0 size=       0kB time=00:00:00.00 bitrate=   0.0kbits/s
    frame=   32 fps=1.2 q=0.0 size=       0kB time=00:00:00.00 bitrate=   0.0kbits/s
    frame=   32 fps=1.1 q=0.0 size=       0kB time=00:00:00.00 bitrate=   0.0kbits/s
    frame=   32 fps=1.1 q=0.0 size=       0kB time=00:00:00.00 bitrate=   0.0kbits/s
    frame=   34 fps=1.1 q=0.0 size=       0kB time=00:00:00.00 bitrate=   0.0kbits/s
    frame=   35 fps=0.9 q=0.0 size=       0kB time=00:00:00.00 bitrate=   0.0kbits/s
    frame=   36 fps=0.9 q=0.0 size=       0kB time=00:00:00.00 bitrate=   0.0kbits/s
    frame=   36 fps=0.9 q=0.0 size=       0kB time=00:00:00.00 bitrate=   0.0kbits/s
    frame=   38 fps=0.8 q=0.0 size=       0kB time=00:00:00.00 bitrate=   0.0kbits/s
    frame=   38 fps=0.8 q=0.0 size=       0kB time=00:00:00.00 bitrate=   0.0kbits/s
    frame=   40 fps=0.8 q=0.0 size=       0kB time=00:00:00.00 bitrate=   0.0kbits/s
    frame=   41 fps=0.8 q=0.0 size=       0kB time=00:00:00.00 bitrate=   0.0kbits/s
    frame=   41 fps=0.7 q=0.0 size=       0kB time=00:00:00.00 bitrate=   0.0kbits/s
    frame=   43 fps=0.7 q=28.0 size=      34kB time=00:00:00.00 bitrate=   0.0kbits/
    frame=   44 fps=0.7 q=28.0 size=      42kB time=00:00:00.04 bitrate=8502.2kbits/
    frame=   44 fps=0.7 q=28.0 size=      42kB time=00:00:00.04 bitrate=8502.2kbits/
    frame=   46 fps=0.7 q=28.0 size=      59kB time=00:00:00.12 bitrate=4041.1kbits/
    frame=   47 fps=0.7 q=28.0 size=      70kB time=00:00:00.16 bitrate=3562.7kbits/
    frame=   47 fps=0.7 q=28.0 size=      70kB time=00:00:00.16 bitrate=3562.7kbits/
    frame=   49 fps=0.7 q=28.0 size=      88kB time=00:00:00.24 bitrate=2999.1kbits/
    frame=   50 fps=0.7 q=28.0 size=      97kB time=00:00:00.28 bitrate=2833.3kbits/
    frame=   50 fps=0.7 q=28.0 size=      97kB time=00:00:00.28 bitrate=2833.3kbits/
    frame=   52 fps=0.7 q=28.0 size=     116kB time=00:00:00.36 bitrate=2645.8kbits/
    frame=   53 fps=0.7 q=28.0 size=     126kB time=00:00:00.40 bitrate=2572.0kbits/
    frame=   54 fps=0.7 q=28.0 size=     135kB time=00:00:00.44 bitrate=2508.5kbits/
    frame=   54 fps=0.7 q=28.0 size=     135kB time=00:00:00.44 bitrate=2508.5kbits/
    frame=   56 fps=0.7 q=28.0 size=     153kB time=00:00:00.52 bitrate=2413.8kbits/
    frame=   57 fps=0.7 q=28.0 size=     162kB time=00:00:00.56 bitrate=2375.7kbits/
    frame=   57 fps=0.6 q=28.0 size=     162kB time=00:00:00.56 bitrate=2375.7kbits/
    frame=   57 fps=0.6 q=28.0 size=     162kB time=00:00:00.56 bitrate=2375.7kbits/
    frame=   59 fps=0.6 q=28.0 size=     181kB time=00:00:00.64 bitrate=2320.6kbits/
    frame=   60 fps=0.6 q=28.0 size=     189kB time=00:00:00.68 bitrate=2282.2kbits/
    frame=   61 fps=0.6 q=28.0 size=     200kB time=00:00:00.72 bitrate=2278.3kbits/
    frame=   61 fps=0.6 q=28.0 size=     200kB time=00:00:00.72 bitrate=2278.3kbits/
    s dup=1 drop=0
    You can't use my script, because the link has expiration! you should get a new one for your self!
    Bahman how long should i wait till it finishes ? furthermore i copied the incomplete mp4 while in process to different folder and tried to play it with VLC Media player but it didnot play the video it closed the player!! could you tell me why ? should i wait till it finishes ?
    Quote Quote  
  22. Stream recording expert Bahman's Avatar
    Join Date: Dec 2011
    Location: Tehran, Iran
    Search Comp PM
    Originally Posted by spiderMan007 View Post
    Bahman how long should i wait till it finishes ? furthermore i copied the incomplete mp4 while in process to different folder and tried to play it with VLC Media player but it didnot play the video it closed the player!! could you tell me why ? should i wait till it finishes ?
    Yes, you should wait till it finishes downloading! Also use the following method, because process will be more quickly and there will be no need to re-encode (Thanks to bat999 for informing me about this method)!
    Code:
    ffmpeg -i whatever.m3u8 -c copy olympics.mkv
    Quote Quote  
  23. thanks bahman . is there away to know the final file size while the process is not finished ?for one hour video the process takes one hour to complete or it depends to my internet speed?
    Quote Quote  
  24. Stream recording expert Bahman's Avatar
    Join Date: Dec 2011
    Location: Tehran, Iran
    Search Comp PM
    It depends on your internet speed! you can estimate the file size! for example if an event is 3h, see how many the size of 30min is, then x6 of that size is the final size!
    Quote Quote  
  25. Bahman how we can specify what bitrate we want ? furthermore i should use :


    Code:
    ffmpeg -i whatever.m3u8 -c copy olympics.mkv
    at the end of process to convert it to .mkv?

    Is it possible to get segments of video instead of the whole video at once ?
    Last edited by spiderMan007; 15th Aug 2012 at 14:35.
    Quote Quote  
  26. Stream recording expert Bahman's Avatar
    Join Date: Dec 2011
    Location: Tehran, Iran
    Search Comp PM
    Originally Posted by spiderMan007 View Post
    Bahman how we can specify what bitrate we want ?
    There are many .m3u8 files. each one of them has a specific bitrate.

    Originally Posted by spiderMan007 View Post
    furthermore i should use :
    Code:
    ffmpeg -i whatever.m3u8 -c copy olympics.mkv
    at the end of process to convert it to .mkv?
    It just saves as mkv, not converting!


    Originally Posted by spiderMan007 View Post
    Is it possible to get segments of video instead of the whole video at once ?
    No!
    Quote Quote  
  27. Member
    Join Date: Aug 2012
    Location: Portugal
    Search PM
    Hey , can you help me to download this : http://www.youtube.com/watch?v=XhVpzKVuRQ8&feature=watch-now-button&wide=1

    I tried with Get FLV , Stream Transport and RTMPExplorer ( with the last one i m not very good ) but can`t downloade the video , can you tell how can i do or another program ? please
    Quote Quote  
  28. Member Seeker47's Avatar
    Join Date: Jul 2005
    Location: drifting, somewhere on the Sea of Cynicism
    Search Comp PM
    Originally Posted by bolaoito View Post
    Hey , can you help me to download this : http://www.youtube.com/watch?v=XhVpzKVuRQ8&feature=watch-now-button&wide=1

    I tried with Get FLV , Stream Transport and RTMPExplorer ( with the last one i m not very good ) but can`t downloade the video , can you tell how can i do or another program ? please
    They seem to have this 'Sign In' BS going on now for some videos, but that likely isn't part of the problem you are encountering. Since when did YT start having any videos longer than about 10 minutes ? This seems to be ALL of a 1hr. 37 min. movie, and not broken up into segments, either. I guess I haven't been paying much attention to what's going on at YT.

    A few things I tried -- quickly -- didn't worth either, but I didn't get to Coojah / Blader.
    I thought the sole justification for buying Get FLV at their exorbitant price was that it supposedly could get everything ?
    When in Las Vegas, don't miss the Pinball Hall of Fame Museum http://www.pinballmuseum.org/ -- over 150 tables from 6+ decades of this gradually disappearing American art form.
    Quote Quote  
  29. Member
    Join Date: Aug 2012
    Location: Portugal
    Search PM
    Like i said i tried with Get Flv , but my Get FLV is old , Blader diden`t cath this ? , i was thinking in install Media Box a new version of Coojah , but there insent a lot of comments about this new version and i dont like install software without read sometinhg about it
    Quote Quote  



Similar Threads